Начать новую тему Ответить на тему
Статистика раздачи
Размер: 312.69 МБ | Добавлен: 16 мар 2014, 00:02 | Скачали: 0
Сидеров: 0  [0 байт/сек]    Личеров: 0  [0 байт/сек]
Пред. тема | След. тема 

Автор
Сообщение

СообщениеДобавлено: 16 мар 2014, 00:02 

Ответить с цитатой 

Manuel Seoane Burning Kingdom - Livin' Now (2009)

Год: 2009
Жанр: Hard Rock
Label & Catalog#: DFX - DFX025
Продолжительность: 00:41:19

Кодек: WavPack
Битрейт: Lossless

Треклист:
01. Livin' Now [03:20]
02. Big Bang [04:42]
03. Who Do You Love? [04:38]
04. Rock On The Radio [05:24]
05. Walking Alone [05:11]
06. Good Times [05:13]
07. Rock Formosa [04:38]
08. Sexy Song [03:32]
09. Slip Away [04:38]
Код:
Код:
REM GENRE "Hard Rock"
REM DATE 2009
PERFORMER "Manuel Seoane"
TITLE "Livin' Now"
FILE "Manuel Seoane [2009] Livin' Now.wv" WAVE
  TRACK 01 AUDIO
    TITLE "Livin' Now"
    PERFORMER "Manuel Seoane"
    INDEX 01 00:00:00
  TRACK 02 AUDIO
    TITLE "Big Bang"
    PERFORMER "Manuel Seoane"
    FLAGS DCP
    INDEX 00 03:12:29
    INDEX 01 03:20:19
  TRACK 03 AUDIO
    TITLE "Who Do You Love?"
    PERFORMER "Manuel Seoane"
    FLAGS DCP
    INDEX 00 07:54:33
    INDEX 01 08:02:23
  TRACK 04 AUDIO
    TITLE "Rock On The Radio"
    PERFORMER "Manuel Seoane"
    FLAGS DCP
    INDEX 00 12:32:67
    INDEX 01 12:40:57
  TRACK 05 AUDIO
    TITLE "Walking Alone"
    PERFORMER "Manuel Seoane"
    FLAGS DCP
    INDEX 00 17:57:28
    INDEX 01 18:05:18
  TRACK 06 AUDIO
    TITLE "Good Times"
    PERFORMER "Manuel Seoane"
    FLAGS DCP
    INDEX 00 23:08:64
    INDEX 01 23:16:54
  TRACK 07 AUDIO
    TITLE "Rock Formosa"
    PERFORMER "Manuel Seoane"
    FLAGS DCP
    INDEX 00 28:22:39
    INDEX 01 28:30:29
  TRACK 08 AUDIO
    TITLE "Sexy Song"
    PERFORMER "Manuel Seoane"
    FLAGS DCP
    INDEX 00 33:00:48
    INDEX 01 33:08:38
  TRACK 09 AUDIO
    TITLE "Slip Away"
    PERFORMER "Manuel Seoane"
    FLAGS DCP
    INDEX 00 36:33:28
    INDEX 01 36:41:18
Код:
Код:
EAC extraction logfile from 30. October 2009, 22:13 for CD
Manuel Seoane / Livin' Now

Used drive  : PHILIPS DVDR1648P1   Adapter: 1  ID: 0
Read mode   : Secure with NO C2, accurate stream, disable cache
Read offset correction : 618
Overread into Lead-In and Lead-Out : No

Used output format : C:\Archivos de programa\Exact Audio Copy\MAC.EXE   (Monkey's Audio Lossless Encoder)
                     Fast Lossless Compression

Other options      :
    Fill up missing offset samples with silence : Yes
    Delete leading and trailing silent blocks : No
    Native Win32 interface for Win NT & 2000

Range status and errors
Selected range
   Filename C:\MetalMadness\MANUEL SEOANEґS BURNING KINGDOM [2009] [CD] LIVINґ NOW [EAC-APE] By Kaiman [MeTaLMaDNeSS.TeaM]\CDImage.wav

   Peak level 98.1 %
   Range quality 100.0 %
   CRC 5224B3CD
   Copy OK

No errors occured

End of status report
Код:
Код:
DON'T MODIFY THIS FILE

-----------------------

PERFORMER: auCDtect Task Manager, ver. 1.6.0 RC1 build 1.6.0.1
Copyright (c) 2008-2010 y-soft. All rights reserved
http:/y-soft.org

ANALYZER: auCDtect: CD records authenticity detector, version 0.8.2
Copyright (c) 2004 Oleg Berngardt. All rights reserved.
Copyright (c) 2004 Alexander Djourik. All rights reserved.

FILE: Manuel Seoane [2009] Livin' Now.wv
  Size: 317597612 Hash: 60E1998D84CD37149886E45D19602C0B Accuracy: -m0
  Conclusion: CDDA 100%
  Signature: B0B28C64E5DDA2D27FF3E89DF8DA2625B9F25EC1
Правила, инструкции, FAQ!!!
Торрент  Добавлен [16 мар 2014, 00:02] Скачать торрент Магнет ссылка
Скачать торрент
[ Размер 25.86 КБ / Просмотров 35 ]

Статус  
 
Размер  312.69 МБ
Приватный: Нет (DHT включён)
.torrent скачан  0
 


     Отправить личное сообщение
   
Страница 1 из 1
Показать сообщения за:  Поле сортировки  
Начать новую тему Ответить на тему


Сейчас этот форум просматривают: нет зарегистрированных пользователей и гости: 0


Вы не можете начинать темы
Вы не можете отвечать на сообщения
Вы не можете редактировать свои сообщения
Вы не можете удалять свои сообщения
Вы не можете добавлять вложения

Перейти:  
cron
cron