Начать новую тему Ответить на тему
Статистика раздачи
Размер: 558.1 МБ | Добавлен: 16 мар 2014, 00:08 | Скачали: 1
Сидеров: 2  [0 байт/сек]    Личеров: 0  [0 байт/сек]
Пред. тема | След. тема 

Автор
Сообщение

СообщениеДобавлено: 16 мар 2014, 00:08 

Ответить с цитатой 

Маnning - The Rооt, Тhe Lеаf & The Воne (2013)

Жанр: Progressive Rock
Год: 2013
Страна: UK
Released: 2013/UK
Label: Festival music
Catalog#: 201310
Аудио кодек: FLAC
Тип рипа: tracks + .cue
Битрейт аудио: lossless
Продолжительность: 01:06:07
Источник-релизер: bzp01 (CD-Rip)/vl-rom
Scans: в раздаче
Треклист:
01. The Root, The Leaf & The Bone (11:59)
02. Decon(struction) Blues (3:46)
03. Auntumn Song (7:07)
04. The Forge (8:01)
05. Old School (8:54)
06. Palace Of Delights (6:34)
07. The Huntsman & The Poacher (5:39)
08. Mists Of Morning Calling To The Day (6:42)
09. Amongst The Sleepers (7:23)

Musicians:
- Guy Маnning / acoustic 6-, 12-string and classical guitars, bass, diddlybow, drums, electric guitars, FX, incantation bell, keyboards, orchestrals, mandolin, percussion, samples, lead and backing vocals
- Dave Millions / electric & acoustic guitars, banjo
- Rick Henry / percussion
- Kris Hudson-Lee / bass
- Julie King / backing vocals

Guest musicians:
- Chloe Herington (Knifeworld) / bassoon (3)
- David Albone / drums
- Ian 'Walter' Fairbairn (Jack The Lad, Hedgepog Pie) / fiddles
- John Young (Lifesigns, Jyb, Asia, The Scorpions, Greenslade) / cameo organ solo on 5
- Joss Allsopp / trumpet
- Kathy Hampson / cellos
- Kev Currie / backing vocals (1, 3)
- Marek Arnold (Seven Steps to the Green Door) / saxes
- Stephen Dundon (Molly Bloom) / flutes

The 'Burnside Quartet' (on 9):
- Guy Manning, Kathy Hampson / cellos
- Jo Manning / violin
- Martin Thiselton / viola

<<<Официальный сайт>>>
Код:
Код:
Exact Audio Copy V1.0 beta 3 from 29. August 2011

EAC extraction logfile from 13. November 2013, 11:00

Manning / The Root, the Leaf & the Bone

Used drive  : ASUS    DRW-1608P3S   Adapter: 1  ID: 1

Read mode               : Secure
Utilize accurate stream : Yes
Defeat audio cache      : Yes
Make use of C2 pointers : No

Read offset correction                      : 48
Overread into Lead-In and Lead-Out          : No
Fill up missing offset samples with silence : Yes
Delete leading and trailing silent blocks   : No
Null samples used in CRC calculations       : Yes
Used interface                              : Installed external ASPI interface
Gap handling                                : Appended to previous track

Used output format              : User Defined Encoder
Selected bitrate                : 128 kBit/s
Quality                         : High
Add ID3 tag                     : No
Command line compressor         : C:\Program Files\Exact Audio Copy\Flac\flac.exe
Additional command line options : -V -8 -T "Date=%year%" -T "Genre=%genre%" %source%

TOC of the extracted CD

     Track |   Start  |  Length  | Start sector | End sector
    ---------------------------------------------------------
        1  |  0:00.00 | 11:59.37 |         0    |    53961
        2  | 11:59.37 |  3:46.15 |     53962    |    70926
        3  | 15:45.52 |  7:06.65 |     70927    |   102941
        4  | 22:52.42 |  8:01.16 |    102942    |   139032
        5  | 30:53.58 |  8:54.37 |    139033    |   179119
        6  | 39:48.20 |  6:34.00 |    179120    |   208669
        7  | 46:22.20 |  5:39.37 |    208670    |   234131
        8  | 52:01.57 |  6:42.00 |    234132    |   264281
        9  | 58:43.57 |  7:23.37 |    264282    |   297543

Track  1

     Filename E:\bzp01\Manning - The Root, The Leaf & The Bone (2013) [FLAC] {201310}\01 - The Root, the Leaf & the Bone.wav

     Pre-gap length  0:00:02.00

     Peak level 100.0 %
     Extraction speed 5.3 X
     Track quality 100.0 %
     Test CRC 2D554050
     Copy CRC 2D554050
     Accurately ripped (confidence 1)  [9A310754]  (AR v2)
     Copy OK

Track  2

     Filename E:\bzp01\Manning - The Root, The Leaf & The Bone (2013) [FLAC] {201310}\02 - Decon(struction) Blues.wav

     Pre-gap length  0:00:02.00

     Peak level 100.0 %
     Extraction speed 5.5 X
     Track quality 100.0 %
     Test CRC 6BC42302
     Copy CRC 6BC42302
     Accurately ripped (confidence 1)  [BCEA7FB0]  (AR v2)
     Copy OK

Track  3

     Filename E:\bzp01\Manning - The Root, The Leaf & The Bone (2013) [FLAC] {201310}\03 - Autumn Song.wav

     Pre-gap length  0:00:02.00

     Peak level 100.0 %
     Extraction speed 6.4 X
     Track quality 100.0 %
     Test CRC A7F51D88
     Copy CRC A7F51D88
     Accurately ripped (confidence 1)  [ABD00D93]  (AR v2)
     Copy OK

Track  4

     Filename E:\bzp01\Manning - The Root, The Leaf & The Bone (2013) [FLAC] {201310}\04 - The Forge.wav

     Pre-gap length  0:00:02.00

     Peak level 100.0 %
     Extraction speed 7.0 X
     Track quality 100.0 %
     Test CRC ECB6F470
     Copy CRC ECB6F470
     Accurately ripped (confidence 1)  [206AF138]  (AR v2)
     Copy OK

Track  5

     Filename E:\bzp01\Manning - The Root, The Leaf & The Bone (2013) [FLAC] {201310}\05 - Old School.wav

     Pre-gap length  0:00:02.00

     Peak level 100.0 %
     Extraction speed 7.2 X
     Track quality 99.9 %
     Test CRC 37276F89
     Copy CRC 37276F89
     Accurately ripped (confidence 1)  [85C8A514]  (AR v2)
     Copy OK

Track  6

     Filename E:\bzp01\Manning - The Root, The Leaf & The Bone (2013) [FLAC] {201310}\06 - The Palace of Delights.wav

     Pre-gap length  0:00:02.00

     Peak level 100.0 %
     Extraction speed 7.9 X
     Track quality 100.0 %
     Test CRC 58CEA46E
     Copy CRC 58CEA46E
     Accurately ripped (confidence 1)  [64C07FBE]  (AR v2)
     Copy OK

Track  7

     Filename E:\bzp01\Manning - The Root, The Leaf & The Bone (2013) [FLAC] {201310}\07 - The Huntsman & the Poacher.wav

     Pre-gap length  0:00:02.00

     Peak level 100.0 %
     Extraction speed 8.1 X
     Track quality 100.0 %
     Test CRC 70FB1067
     Copy CRC 70FB1067
     Accurately ripped (confidence 1)  [5F06B726]  (AR v2)
     Copy OK

Track  8

     Filename E:\bzp01\Manning - The Root, The Leaf & The Bone (2013) [FLAC] {201310}\08 - Mists of Morning Calling to the Day.wav

     Pre-gap length  0:00:02.00

     Peak level 100.0 %
     Extraction speed 8.5 X
     Track quality 100.0 %
     Test CRC 627F146E
     Copy CRC 627F146E
     Accurately ripped (confidence 1)  [625FA851]  (AR v2)
     Copy OK

Track  9

     Filename E:\bzp01\Manning - The Root, The Leaf & The Bone (2013) [FLAC] {201310}\09 - Amongst the Sleepers.wav

     Pre-gap length  0:00:02.00

     Peak level 100.0 %
     Extraction speed 8.9 X
     Track quality 100.0 %
     Test CRC 25ACFF49
     Copy CRC 25ACFF49
     Accurately ripped (confidence 1)  [80FF9B72]  (AR v2)
     Copy OK

All tracks accurately ripped

No errors occurred

End of status report

==== Log checksum 0E4468EA5708E2D2EC7F1CF56987FFEE1D292CBA576AAC9DF278B12ACF086544 ====
Код:
Код:
-----------------------

DON'T MODIFY THIS FILE

-----------------------

PERFORMER: auCDtect Task Manager, ver. 1.6.0 RC1 build 1.6.0.1
Copyright (c) 2008-2010 y-soft. All rights reserved
http:/y-soft.org

ANALYZER: auCDtect: CD records authenticity detector, version 0.8.2
Copyright (c) 2004 Oleg Berngardt. All rights reserved.
Copyright (c) 2004 Alexander Djourik. All rights reserved.

FILE: 09 - Amongst the Sleepers.flac
  Size: 49798496 Hash: 6259ECA2C46DA6EF271794BC314D7ACF Accuracy: -m0
  Conclusion: CDDA 99%
  Signature: 0C7F717CAD30AC0303C495979DF6FA29A31B9EEB
FILE: 08 - Mists of Morning Calling to the Day.flac
  Size: 49753626 Hash: 8C61B38A49F76E68297BF95D02D48BC6 Accuracy: -m0
  Conclusion: CDDA 100%
  Signature: 0D70146FB1C981A10C9EFE3E447CE0C39153D122
FILE: 07 - The Huntsman & the Poacher.flac
  Size: 41435102 Hash: BF0A1F23DC9FA4ECF8490707A1EC8FDC Accuracy: -m0
  Conclusion: CDDA 100%
  Signature: 842705B1477CB7A003FAA7CA4450E3E50D9BAE06
FILE: 06 - The Palace of Delights.flac
  Size: 47169424 Hash: EA4CD281CED44B322758B2357AF7C3E1 Accuracy: -m0
  Conclusion: CDDA 100%
  Signature: 1AD384169CF92487559A78D3370166CF19147DC4
FILE: 05 - Old School.flac
  Size: 62372212 Hash: E0803EA2A58B3C614206A40F19E276E2 Accuracy: -m0
  Conclusion: CDDA 100%
  Signature: F74B5BE5536CC5E8EAB4DCCF42A3A14E5C453A37
FILE: 04 - The Forge.flac
  Size: 58472189 Hash: 357008025F864AB5D89AB6887222D775 Accuracy: -m0
  Conclusion: CDDA 100%
  Signature: 3F4219A5AC02B7C3F8BAD618FD9F4E225806F5BD
FILE: 03 - Autumn Song.flac
  Size: 47079555 Hash: E37EDDF051E9FEB7658E4B266969F960 Accuracy: -m0
  Conclusion: CDDA 100%
  Signature: 7FA9B8D19D196D5136ADAB4A8909BB976703E483
FILE: 02 - Decon(struction) Blues.flac
  Size: 28865672 Hash: B80936E1A594F238D30B814E8F4C9F18 Accuracy: -m0
  Conclusion: CDDA 100%
  Signature: 02904C37BADDB5235DB0A38ACDBC5B927F3EE8AD
FILE: 01 - The Root, the Leaf & the Bone.flac
  Size: 76481121 Hash: E043AD5F6A60891794FC779D7E14D104 Accuracy: -m0
  Conclusion: CDDA 100%
  Signature: E93544061BE0EAE0883085E2E5A48257C9EC37C5
Правила, инструкции, FAQ!!!
Торрент  Добавлен [16 мар 2014, 00:08] Скачать торрент Магнет ссылка
Скачать торрент
[ Размер 13.07 КБ / Просмотров 29 ]

Статус  
 
Размер  558.1 МБ
Приватный: Нет (DHT включён)
.torrent скачан  1
 


     Отправить личное сообщение
   
Страница 1 из 1
Показать сообщения за:  Поле сортировки  
Начать новую тему Ответить на тему


Сейчас этот форум просматривают: нет зарегистрированных пользователей и гости: 0


Вы не можете начинать темы
Вы не можете отвечать на сообщения
Вы не можете редактировать свои сообщения
Вы не можете удалять свои сообщения
Вы не можете добавлять вложения

Перейти:  
cron