Начать новую тему Ответить на тему
Статистика раздачи
Размер: 462.77 МБ | Добавлен: 24 ноя 2019, 15:44 | Скачали: 2
Сидеров: 23  [0 байт/сек]    Личеров: 5  [0 байт/сек]
Пред. тема | След. тема 

Автор
Сообщение

СообщениеДобавлено: 24 ноя 2019, 15:44 

Ответить с цитатой 

Mandy Harvey - Nice to Meet You


Формат записи/Источник записи: [TR24][OF]
Наличие водяных знаков: Нет
Год издания: 2019
Жанр: Pop
Издатель (лейбл): The Ils Group
Продолжительность: 00:41:25
Наличие сканов в содержимом раздачи: Только обложка альбома
Контейнер: FLAC (*.flac)
Тип рипа: tracks
Разрядность: 24/44.1
Формат: PCM
Количество каналов: 2.0
Источник (релизер): qobuz.com
Доп. информация: facebook.com
Треклист
01. Heart on Fire
02. This Time
03. Try
04. Mara's Song
05. Instantly
06. Release Me
07. Waking Up
08. Don't Let Go
09. Waiting
10. One Minute
11. I Can't Imagine
12. Creep
Код:
foobar2000 1.4.8 / Dynamic Range Meter 1.1.1
log date: 2019-11-23 13:14:20
--------------------------------------------------------------------------------
Analyzed: Mandy Harvey / Nice to Meet You
--------------------------------------------------------------------------------
DR         Peak         RMS     Duration Track
--------------------------------------------------------------------------------
DR6       -0.39 dB    -9.51 dB      3:35 01-Heart on Fire
DR7       -0.39 dB    -9.92 dB      3:21 02-This Time
DR7       -0.39 dB    -9.74 dB      3:02 03-Try
DR9       -0.39 dB   -12.43 dB      3:21 04-Mara's Song
DR8       -0.39 dB   -11.21 dB      3:53 05-Instantly
DR6       -0.39 dB    -8.36 dB      3:42 06-Release Me
DR8       -0.39 dB   -10.75 dB      3:19 07-Waking Up
DR7       -0.39 dB    -9.90 dB      3:45 08-Don't Let Go
DR8       -0.39 dB    -9.86 dB      4:18 09-Waiting
DR6       -0.39 dB   -10.72 dB      3:37 10-One Minute
DR13      -0.39 dB   -18.30 dB      1:51 11-I Can't Imagine
DR10      -0.39 dB   -14.49 dB      3:49 12-Creep
--------------------------------------------------------------------------------
Number of tracks:  12
Official DR value: DR8
Samplerate:        44100 Hz
Channels:          2
Bits per sample:   24
Bitrate:           1266 kbps
Codec:             FLAC
================================================================================
Правила, инструкции, FAQ!!!
Торрент  Добавлен [24 ноя 2019, 15:44] Скачать торрент Магнет ссылка
Скачать торрент
[ Размер 19.2 КБ / Просмотров 31 ]

Статус
Проверен 
 
Размер  462.77 МБ
Приватный: Нет (DHT включён)
.torrent скачан  2
 


     Отправить личное сообщение
   
Страница 1 из 1
Показать сообщения за:  Поле сортировки  
Начать новую тему Ответить на тему


Сейчас этот форум просматривают: нет зарегистрированных пользователей и гости: 0


Вы не можете начинать темы
Вы не можете отвечать на сообщения
Вы не можете редактировать свои сообщения
Вы не можете удалять свои сообщения
Вы не можете добавлять вложения

Перейти:  
cron