Начать новую тему Ответить на тему
Статистика раздачи
Размер: 429.81 МБ | Добавлен: 16 апр 2020, 21:12 | Скачали: 0
Сидеров: 1  [0 байт/сек]    Личеров: 0  [0 байт/сек]
Пред. тема | След. тема 

Автор
Сообщение

СообщениеДобавлено: 16 апр 2020, 21:12 

Ответить с цитатой 


Malory


Métropole Blues



• Формат записи | Источник записи: [TR24][OF]
• Наличие водяных знаков: Нет
• Год издания релиза: 2020
• Жанр: Chanson | Pop
• Продолжительность: 00:36:05
• Источник: internet
• WEB релиз: ссылка
• Контейнер: FLAC (*.flac)
• Тип рипа: tracks
• Разрядность: 24/48
• Формат: WAV (flac.ape.wv)
• Количество каналов: 2.0
• Наличие сканов: front
Tracklist:
01 - Demain ca ira mieux (00:03:19)
02 - Au reveil (00:03:20)
03 - Metropole Blues (00:04:02)
04 - Morceaux de toi (00:03:21)
05 - Tsunami Amor (00:02:46)
06 - Telephone Pacifique (00:03:30)
07 - 37°2 Le Matin (00:03:14)
08 - Sex All Night (00:02:48)
09 - Attrape-cœurs (00:03:12)
10 - Margiela Fantome (00:03:36)
11 - Resilience (00:02:52)



Код:
foobar2000 1.4.2 / Замер динамического диапазона (DR) 1.1.1
Дата отчёта:  2020-03-06 09:26:43
--------------------------------------------------------------------------------
Анализ:   Malory / Metropole Blues
--------------------------------------------------------------------------------
DR         Пики         RMS           Продолжительность трека
--------------------------------------------------------------------------------
DR6        0.00 дБ    -8.55 дБ      3:19 01-Demain ca ira mieux
DR5        0.00 дБ    -6.95 дБ      3:21 02-Au reveil
DR6        0.00 дБ    -6.98 дБ      4:03 03-Metropole Blues
DR6        0.00 дБ    -7.56 дБ      3:21 04-Morceaux de toi
DR5        0.00 дБ    -6.12 дБ      2:46 05-Tsunami Amor
DR8        0.00 дБ   -10.01 дБ      3:30 06-Telephone Pacifique
DR6        0.00 дБ    -6.95 дБ      3:15 07-37°2 Le Matin
DR6        0.00 дБ    -6.75 дБ      2:49 08-Sex All Night
DR5        0.00 дБ    -6.97 дБ      3:13 09-Attrape-c?urs
DR5        0.00 дБ    -6.49 дБ      3:36 10-Margiela Fantome
DR5        0.00 дБ    -7.93 дБ      2:52 11-Resilience
--------------------------------------------------------------------------------
Количество треков: 11
Реальные значения DR: DR6
Частота:   48000 Гц
Каналов:   2
Разрядность:   24
Битрейт:   1580 кбит/с
Кодек:   FLAC
================================================================================

Правила, инструкции, FAQ!!!
Торрент  Добавлен [16 апр 2020, 21:12] Скачать торрент Магнет ссылка
Скачать торрент
[ Размер 17.87 КБ / Просмотров 6 ]

Статус
Проверен 
 
Размер  429.81 МБ
Приватный: Нет (DHT включён)
.torrent скачан  0
 


     Отправить личное сообщение
   
Страница 1 из 1
Показать сообщения за:  Поле сортировки  
Начать новую тему Ответить на тему


Сейчас этот форум просматривают: нет зарегистрированных пользователей и гости: 0


Вы не можете начинать темы
Вы не можете отвечать на сообщения
Вы не можете редактировать свои сообщения
Вы не можете удалять свои сообщения
Вы не можете добавлять вложения

Перейти:  
cron
cron