Начать новую тему Ответить на тему
Статистика раздачи
Размер: 379.5 МБ | Добавлен: 16 апр 2020, 21:15 | Скачали: 0
Сидеров: 1  [0 байт/сек]    Личеров: 0  [0 байт/сек]
Пред. тема | След. тема 

Автор
Сообщение

СообщениеДобавлено: 16 апр 2020, 21:15 

Ответить с цитатой 


Malihini


Hopefully, Again



• Формат записи | Источник записи: [TR24][OF]
• Наличие водяных знаков: Нет
• Год издания релиза: 2019
• Жанр: Indie Pop
• Лейбл: Memphis Industries
• Продолжительность: 00:33:02
• Источник: internet
• WEB релиз: ссылка
• Контейнер: FLAC (*.flac)
• Тип рипа: tracks
• Разрядность: 24/48
• Формат: WAV (flac.ape.wv)
• Количество каналов: 2.0
• Наличие сканов: front
Tracklist:
01 - A House on a Boat (00:02:55)
02 - Hopefully, Again (00:03:40)
03 - Delusional Boy (00:04:04)
04 - Nefertiti (00:02:54)
05 - Giving Up on Me (00:02:48)
06 - Can't Stand That (00:03:35)
07 - If U Call (00:03:16)
08 - The Snow (00:02:38)
09 - The Afterdays (00:02:52)
10 - Song #1 (00:04:17)



Код:
foobar2000 1.4.2 / Замер динамического диапазона (DR) 1.1.1
Дата отчёта:  2020-03-25 10:54:21
--------------------------------------------------------------------------------
Анализ:   Malihini / Hopefully, Again
--------------------------------------------------------------------------------
DR         Пики         RMS           Продолжительность трека
--------------------------------------------------------------------------------
DR6       -0.32 дБ    -8.98 дБ      2:55 01-A House on a Boat
DR8       -0.32 дБ   -10.87 дБ      3:41 02-Hopefully, Again
DR7       -0.32 дБ    -8.84 дБ      4:04 03-Delusional Boy
DR7       -0.32 дБ    -9.37 дБ      2:54 04-Nefertiti
DR10      -0.32 дБ   -11.49 дБ      2:48 05-Giving Up on Me
DR8       -0.32 дБ    -9.91 дБ      3:35 06-Can't Stand That
DR8       -0.32 дБ    -9.37 дБ      3:17 07-If U Call
DR6       -0.32 дБ    -8.71 дБ      2:38 08-The Snow
DR7       -0.32 дБ   -12.17 дБ      2:52 09-The Afterdays
DR8       -0.32 дБ    -9.80 дБ      4:18 10-Song #1
--------------------------------------------------------------------------------
Количество треков: 10
Реальные значения DR: DR7
Частота:   48000 Гц
Каналов:   2
Разрядность:   24
Битрейт:   1512 кбит/с
Кодек:   FLAC
================================================================================

Правила, инструкции, FAQ!!!
Торрент  Добавлен [16 апр 2020, 21:15] Скачать торрент Магнет ссылка
Скачать торрент
[ Размер 15.85 КБ / Просмотров 3 ]

Статус
Проверен 
 
Размер  379.5 МБ
Приватный: Нет (DHT включён)
.torrent скачан  0
 


     Отправить личное сообщение
   
Страница 1 из 1
Показать сообщения за:  Поле сортировки  
Начать новую тему Ответить на тему


Сейчас этот форум просматривают: нет зарегистрированных пользователей и гости: 0


Вы не можете начинать темы
Вы не можете отвечать на сообщения
Вы не можете редактировать свои сообщения
Вы не можете удалять свои сообщения
Вы не можете добавлять вложения

Перейти:  
cron
cron