Начать новую тему Ответить на тему
Статистика раздачи
Размер: 424.37 МБ | Добавлен: 01 апр 2019, 19:00 | Скачали: 0
Сидеров: 0  [0 байт/сек]    Личеров: 0  [0 байт/сек]
Пред. тема | След. тема 

Автор
Сообщение

СообщениеДобавлено: 01 апр 2019, 19:00 

Ответить с цитатой 

majiko - AUBE
Формат записи/Источник записи: [TR24][OF]
Наличие водяных знаков: Нет
Год издания/переиздания диска: 2018
Жанр: J-Pop
Издатель (лейбл): Universal Music
Продолжительность: 33:03
Наличие сканов в содержимом раздачи: Только обложка альбома
Треклист:
01. Koe (4:22)
02. Learn To Fly (3:43)
03. Agarutano Mayoigo (4:08)
04. Soup No Hi (4:13)
05. Dawin Senseino Kentai (3:59)
06. Undercover (4:19)
07. Avenir (3:35)
08. Am (4:44)
 
ネットシーン発の実力派ヴォーカリスト、majiko の8曲入りアルバム。荒井岳史 (the band apart)、堀江晶太 (KEMU VOXX / PENGUIN RESEARCH)、ホリエアツシ(ストレイテナー)、H ZETT M ら豪華作家陣が集結し、個性豊かな楽曲を提供。トリッキーなトラックをさらりと乗りこなす "アガルタの迷い子"、シャウト混じりの歌声を放つヘヴィロック "ダーウィン先生の倦怠" など、変幻自在のヴォーカルで振り幅の広い楽曲を歌いあげる。自作曲 "Avenir" で聴かせるリラクシンな歌声も魅力的。

Контейнер: FLAC (*.flac)
Тип рипа: tracks
Разрядность: 24/48
Формат: PCM
Количество каналов: 2.0
Код:
foobar2000 1.3.9 / Dynamic Range Meter 1.1.1
log date: 2018-04-04 01:40:44
--------------------------------------------------------------------------------
Analyzed: majiko / AUBE
--------------------------------------------------------------------------------
DR         Peak         RMS     Duration Track
--------------------------------------------------------------------------------
DR6        0.00 dB    -8.24 dB      4:22 01-Koe
DR7        0.00 dB    -8.36 dB      3:43 02-Learn To Fly
DR6        0.00 dB    -9.09 dB      4:08 03-Agarutano Mayoigo
DR7        0.00 dB    -8.64 dB      4:13 04-Soup No Hi
DR6        0.00 dB    -6.90 dB      3:59 05-Dawin Senseino Kentai
DR7        0.00 dB    -9.45 dB      4:19 06-Undercover
DR7        0.00 dB    -8.96 dB      3:35 07-Avenir
DR8        0.00 dB   -11.89 dB      4:44 08-Am
--------------------------------------------------------------------------------
Number of tracks:  8
Official DR value: DR7
Samplerate:        48000 Hz
Channels:          2
Bits per sample:   24
Bitrate:           1586 kbps
Codec:             FLAC
================================================================================
Источник: qobuz.com[/spoiler]
Правила, инструкции, FAQ!!!
Торрент  Добавлен [01 апр 2019, 19:00] Скачать торрент Магнет ссылка
Скачать торрент
[ Размер 17.51 КБ / Просмотров 13 ]

Статус
Проверен 
 
Размер  424.37 МБ
Приватный: Нет (DHT включён)
.torrent скачан  0
 


     Отправить личное сообщение
   
Страница 1 из 1
Показать сообщения за:  Поле сортировки  
Начать новую тему Ответить на тему


Сейчас этот форум просматривают: нет зарегистрированных пользователей и гости: 0


Вы не можете начинать темы
Вы не можете отвечать на сообщения
Вы не можете редактировать свои сообщения
Вы не можете удалять свои сообщения
Вы не можете добавлять вложения

Перейти:  
cron
cron