Начать новую тему Ответить на тему
Статистика раздачи
Размер: 589.76 МБ | Добавлен: 13 май 2020, 15:06 | Скачали: 0
Сидеров: 2  [0 байт/сек]    Личеров: 0  [0 байт/сек]
Пред. тема | След. тема 

Автор
Сообщение

СообщениеДобавлено: 13 май 2020, 15:06 

Ответить с цитатой 

Majid Jordan / Majid Jordan
Формат записи/Источник записи: [TR24][OF]
Год издания/переиздания диска: 2016
Жанр: R&B, Soul
Издатель (лейбл): OVO Sound - Warner Records
Продолжительность: 00:51:37
Наличие сканов в содержимом раздачи: Только обложка альбома
Треклист:
01. Learn From Each Other
02. Make It Work
03. My Love (feat. Drake)
04. Small Talk
05. Pacifico
06. Shake Shake Shake
07. Love Is Always There
08. Warm
09. Something About You
10. Day and Night
11. King City
12. Every Step Every Way
Контейнер: FLAC (*.flac)
Тип рипа: tracks
Разрядность: 24/44,1
Формат: WAV (flac.ape.wv)
Количество каналов: 2.0
Код:
foobar2000 1.5.3 / Замер динамического диапазона (DR) 1.1.1
Дата отчёта:  2020-05-13 09:19:26
--------------------------------------------------------------------------------
Анализ:   Majid Jordan / Majid Jordan
--------------------------------------------------------------------------------
DR         Пики         RMS           Продолжительность трека
--------------------------------------------------------------------------------
DR4       -0.13 дБ    -5.93 дБ      5:46 01-Learn From Each Other
DR4       -0.13 дБ    -6.82 дБ      3:44 02-Make It Work
DR4       -0.09 дБ    -7.10 дБ      4:08 03-My Love (feat. Drake)
DR5       -0.13 дБ    -7.40 дБ      4:19 04-Small Talk
DR3       -0.13 дБ    -6.30 дБ      4:36 05-Pacifico
DR3       -0.14 дБ    -5.27 дБ      4:48 06-Shake Shake Shake
DR4       -0.13 дБ    -6.16 дБ      4:47 07-Love Is Always There
DR5       -0.13 дБ    -7.59 дБ      3:12 08-Warm
DR4       -0.14 дБ    -6.48 дБ      4:22 09-Something About You
DR4       -0.13 дБ    -7.00 дБ      5:06 10-Day And Night
DR3       -0.13 дБ    -6.74 дБ      3:21 11-King City
DR3       -0.13 дБ    -7.44 дБ      3:35 12-Every Step Every Way
--------------------------------------------------------------------------------
Количество треков: 12
Реальные значения DR: DR4
Частота:   44100 Гц
Каналов:   2
Разрядность:   24
Битрейт:   1559 кбит/с
Кодек:   FLAC
================================================================================
Источник (релизер): Qobuz
Правила, инструкции, FAQ!!!
Торрент  Добавлен [13 май 2020, 15:06] Скачать торрент Магнет ссылка
Скачать торрент
[ Размер 24.24 КБ / Просмотров 4 ]

Статус
Проверен 
 
Размер  589.76 МБ
Приватный: Нет (DHT включён)
.torrent скачан  0
 


     Отправить личное сообщение
   
Страница 1 из 1
Показать сообщения за:  Поле сортировки  
Начать новую тему Ответить на тему


Сейчас этот форум просматривают: нет зарегистрированных пользователей и гости: 0


Вы не можете начинать темы
Вы не можете отвечать на сообщения
Вы не можете редактировать свои сообщения
Вы не можете удалять свои сообщения
Вы не можете добавлять вложения

Перейти:  
cron