Начать новую тему Ответить на тему
Статистика раздачи
Размер: 3.38 ГБ | Добавлен: 16 мар 2014, 00:56 | Скачали: 0
Сидеров: 0  [0 байт/сек]    Личеров: 0  [0 байт/сек]
Пред. тема | След. тема 

Автор
Сообщение

СообщениеДобавлено: 16 мар 2014, 00:56 

Ответить с цитатой 

Madrugada - 5 Albums + 1 Compilation (1999 - 2010)

Год: 1999 - 2010
Жанр: Indie, Alternative, Art Rock
Продолжительность: 08:26:17

Кодек: FLAC, APE
Битрейт: Lossless

Albums:
#777Треклист:

01. Vocal (6:27)
02. Beautyproof (3:57)
03. Shine (4:12)
04. Higher (4:47)
05. Sirens (6:16)
06. Strange Colour Blue (5:05)
07. This Old House (5:07)
08. Electric (4:52)
09. Salt (4:51)
10. Belladonna (4:19)
11. Norwegian Hammerworks Corp (5:27)
12. Quite Emotional (4:29)
13. Terraplane (4:08)
Код:
Код:
Exact Audio Copy V0.99 prebeta 5 from 4. May 2009

EAC extraction logfile from 4. August 2010, 16:47

Madrugada / Industrial Silence (Deluxe Edition)

Used drive  : HL-DT-STDVD-ROM GDR8163B   Adapter: 0  ID: 0

Read mode               : Secure
Utilize accurate stream : Yes
Defeat audio cache      : Yes
Make use of C2 pointers : No

Read offset correction                      : 102
Overread into Lead-In and Lead-Out          : No
Fill up missing offset samples with silence : Yes
Delete leading and trailing silent blocks   : No
Null samples used in CRC calculations       : Yes
Used interface                              : Native Win32 interface for Win NT & 2000
Gap handling                                : Appended to previous track

Used output format              : User Defined Encoder
Selected bitrate                : 128 kBit/s
Quality                         : High
Add ID3 tag                     : No
Command line compressor         : C:\Program Files (x86)\Exact Audio Copy\Flac\flac.exe
Additional command line options : -8 -V -T "ARTIST=%a" -T "TITLE=%t" -T "ALBUM=%g" -T "DATE=%y" -T "TRACKNUMBER=%n" -T "TOTALTRACKS=%x" -T "GENRE=%m" -T "ALBUMARTIST=%v" -T "ALBUM ARTIST=%v" -T "COMMENT=EAC Secure Mode, Test & Copy, AccurateRip, FLAC -8" %s

TOC of the extracted CD

     Track |   Start  |  Length  | Start sector | End sector
    ---------------------------------------------------------
        1  |  0:00.00 |  6:27.12 |         0    |    29036
        2  |  6:27.12 |  3:57.24 |     29037    |    46835
        3  | 10:24.36 |  4:12.11 |     46836    |    65746
        4  | 14:36.47 |  4:46.57 |     65747    |    87253
        5  | 19:23.29 |  6:15.70 |     87254    |   115448
        6  | 25:39.24 |  5:05.04 |    115449    |   138327
        7  | 30:44.28 |  5:07.02 |    138328    |   161354
        8  | 35:51.30 |  4:51.65 |    161355    |   183244
        9  | 40:43.20 |  4:50.70 |    183245    |   205064
       10  | 45:34.15 |  4:18.73 |    205065    |   224487
       11  | 49:53.13 |  5:26.70 |    224488    |   249007
       12  | 55:20.08 |  4:28.51 |    249008    |   269158
       13  | 59:48.59 |  4:07.42 |    269159    |   287725

Track  1

     Filename G:\Temp\01 - Vocal.wav

     Pre-gap length  0:00:02.00

     Peak level 99.8 %
     Track quality 99.9 %
     Test CRC 3DB46C71
     Copy CRC 3DB46C71
     Track not present in AccurateRip database
     Copy OK

Track  2

     Filename G:\Temp\02 - Beautyproof.wav

     Peak level 99.8 %
     Track quality 100.0 %
     Test CRC BF636C8F
     Copy CRC BF636C8F
     Track not present in AccurateRip database
     Copy OK

Track  3

     Filename G:\Temp\03 - Shine.wav

     Peak level 98.9 %
     Track quality 100.0 %
     Test CRC 3DC6AECF
     Copy CRC 3DC6AECF
     Track not present in AccurateRip database
     Copy OK

Track  4

     Filename G:\Temp\04 - Higher.wav

     Peak level 100.0 %
     Track quality 100.0 %
     Test CRC 73CB7D28
     Copy CRC 73CB7D28
     Track not present in AccurateRip database
     Copy OK

Track  5

     Filename G:\Temp\05 - Sirens.wav

     Peak level 99.0 %
     Track quality 100.0 %
     Test CRC 6953066B
     Copy CRC 6953066B
     Track not present in AccurateRip database
     Copy OK

Track  6

     Filename G:\Temp\06 - Strange Colour Blue.wav

     Peak level 99.8 %
     Track quality 100.0 %
     Test CRC 0ADFE781
     Copy CRC 0ADFE781
     Track not present in AccurateRip database
     Copy OK

Track  7

     Filename G:\Temp\07 - This Old House.wav

     Peak level 99.8 %
     Track quality 100.0 %
     Test CRC 66E53B3B
     Copy CRC 66E53B3B
     Track not present in AccurateRip database
     Copy OK

Track  8

     Filename G:\Temp\08 - Electric.wav

     Peak level 99.8 %
     Track quality 99.9 %
     Test CRC 7102DC5F
     Copy CRC 7102DC5F
     Track not present in AccurateRip database
     Copy OK

Track  9

     Filename G:\Temp\09 - Salt.wav

     Peak level 99.8 %
     Track quality 100.0 %
     Test CRC C16F76E4
     Copy CRC C16F76E4
     Track not present in AccurateRip database
     Copy OK

Track 10

     Filename G:\Temp\10 - Belladonna.wav

     Peak level 99.8 %
     Track quality 99.9 %
     Test CRC 00760B0D
     Copy CRC 00760B0D
     Track not present in AccurateRip database
     Copy OK

Track 11

     Filename G:\Temp\11 - Norwegian Hammerworks Corp.wav

     Peak level 99.8 %
     Track quality 100.0 %
     Test CRC 9C318BD2
     Copy CRC 9C318BD2
     Track not present in AccurateRip database
     Copy OK

Track 12

     Filename G:\Temp\12 - Quite Emotional.wav

     Peak level 99.4 %
     Track quality 100.0 %
     Test CRC A083D03E
     Copy CRC A083D03E
     Track not present in AccurateRip database
     Copy OK

Track 13

     Filename G:\Temp\13 - Terraplane.wav

     Pre-gap length  0:00:10.29

     Peak level 99.1 %
     Track quality 100.0 %
     Test CRC F1988CCC
     Copy CRC F1988CCC
     Track not present in AccurateRip database
     Copy OK

None of the tracks are present in the AccurateRip database

No errors occurred

End of status report
Код:
Код:
-----------------------

DON'T MODIFY THIS FILE

-----------------------

PERFORMER: auCDtect Task Manager, ver. 1.5.1RC4 build 1.5.1.5
Copyright (c) 2008-2010 y-soft. All rights reserved
http:/y-soft.org

ANALYZER: auCDtect: CD records authenticity detector, version 0.8.2
Copyright (c) 2004 Oleg Berngardt. All rights reserved.
Copyright (c) 2004 Alexander Djourik. All rights reserved.

FILE: 13 - Terraplane.flac
  Size: 24779555 Hash: 7E62767FEF9FF123FCCFC5B19BB98F36 Accuracy: -m0
  Conclusion: CDDA 100%
  Signature: E6CFDF216F18333BEE6B068B2BC18CE6A9031555
FILE: 12 - Quite Emotional.flac
  Size: 27474245 Hash: 76AFDEAA0DD9979365F9819AD5788122 Accuracy: -m0
  Conclusion: CDDA 100%
  Signature: 9C46C7A10A85BCFECA00BFD65BC84C797BE5933E
FILE: 11 - Norwegian Hammerworks Corp.flac
  Size: 39735947 Hash: 07F2DA81F28CCBFEA08335A1BF0FE57E Accuracy: -m0
  Conclusion: CDDA 99%
  Signature: 4882CC77F4D466574C26208D50055E299146636F
FILE: 10 - Belladonna.flac
  Size: 33619835 Hash: 3B17C081D155D149A400E08A6DF8AC04 Accuracy: -m0
  Conclusion: CDDA 100%
  Signature: 703E8EC4B0EFEFF78FA970AE1BFE1CC0DAFF7F27
FILE: 09 - Salt.flac
  Size: 32707357 Hash: 04D30E9ED68714036DF5FA94A08B7A75 Accuracy: -m0
  Conclusion: CDDA 100%
  Signature: 31FD086997A16E5A539466537D5E56CD39A5BF1B
FILE: 08 - Electric.flac
  Size: 35067189 Hash: 56C6CE1AD0160F6200DB0DFA5846DDF2 Accuracy: -m0
  Conclusion: CDDA 100%
  Signature: FD357691A24E88BFFCFA79F6ABFBF8C60D51A4F8
FILE: 07 - This Old House.flac
  Size: 38871964 Hash: 71968E0873FBA54F9EB5CA40EADDE7C6 Accuracy: -m0
  Conclusion: CDDA 100%
  Signature: C3D37A7CC83ADD0E97D398F866809170952E5B75
FILE: 06 - Strange Colour Blue.flac
  Size: 33609614 Hash: 2FE6DC4EA7C5F217A2D598A17CE2F2BB Accuracy: -m0
  Conclusion: CDDA 100%
  Signature: CD2B5FA2062CD5C024D04E4DA76FC0CE7FBAB215
FILE: 05 - Sirens.flac
  Size: 40349445 Hash: 5F3BE9AFC83E26B8462E709804F542AC Accuracy: -m0
  Conclusion: CDDA 100%
  Signature: C411B6E77F175E7FD7236ECA30951D1918BFACB1
FILE: 04 - Higher.flac
  Size: 37022811 Hash: 3C6BBDDD531895B66A2B1B1AD678C3B6 Accuracy: -m0
  Conclusion: CDDA 100%
  Signature: 9D8F408AE7B03C616E18F59A16E3B84FD33A2F2A
FILE: 03 - Shine.flac
  Size: 26914130 Hash: 9F04E3282DAAF90DCFD994A676A7788F Accuracy: -m0
  Conclusion: CDDA 99%
  Signature: 62859CD69E1626D8A5E084E0A341B2811B0A0832
FILE: 02 - Beautyproof.flac
  Size: 25313077 Hash: E6946C5E2D0CFF0F223149A8542D0FB4 Accuracy: -m0
  Conclusion: CDDA 100%
  Signature: EA61A3A0EA629E75ED644E345AB1D95E919DCD53
FILE: 01 - Vocal.flac
  Size: 45488239 Hash: 689CB0825C1E001C9CCB8BE5B3C115D4 Accuracy: -m0
  Conclusion: CDDA 100%
  Signature: 17D5B5E919367A5EB28A018C2FAAC82F9D78BA2B
Продолжительность: 01:03:56
FLAC (tracks+.cue)
#777Треклист:

01. Wheelchair (4:35)
02. Move (4:13)
03. Sweet Simone (Demo) (4:16)
04. Strange Colour Blue (Alt) (4:32)
05. Highway 2 000 000 (4:12)
06. Oceanliner (4:50)
07. The Riverbed (4:46)
08. Tonight I Have No Words For You (4:59)
09. 1990 (3:17)
10. I'm Life's Wonderful Way Of Letting You Down (4:14)
11. Bill Skins Fifth (3:28)
12. Mother Of Earth (4:24)
13. Legends And Bones (From ''The Shit City Sessions'') (3:14)
14. Step Into My Mirror (From ''The Shit City Sessions'') (3:03)
15. Hush Sleep Tonight (1996 Demo) (3:42)
16. Shine (1996 Demo) (4:09)
17. I'm In Love With You (4:34)
18. This Must Be The Song That Will Pay My Bills (Demo) (5:11)
Код:
Код:
Exact Audio Copy V0.99 prebeta 5 from 4. May 2009

EAC extraction logfile from 4. August 2010, 17:28

Madrugada / Industrial Silence (Deluxe Edition Bonus CD)

Used drive  : HL-DT-STDVD-ROM GDR8163B   Adapter: 0  ID: 0

Read mode               : Secure
Utilize accurate stream : Yes
Defeat audio cache      : Yes
Make use of C2 pointers : No

Read offset correction                      : 102
Overread into Lead-In and Lead-Out          : No
Fill up missing offset samples with silence : Yes
Delete leading and trailing silent blocks   : No
Null samples used in CRC calculations       : Yes
Used interface                              : Native Win32 interface for Win NT & 2000
Gap handling                                : Appended to previous track

Used output format              : User Defined Encoder
Selected bitrate                : 128 kBit/s
Quality                         : High
Add ID3 tag                     : No
Command line compressor         : C:\Program Files (x86)\Exact Audio Copy\Flac\flac.exe
Additional command line options : -8 -V -T "ARTIST=%a" -T "TITLE=%t" -T "ALBUM=%g" -T "DATE=%y" -T "TRACKNUMBER=%n" -T "TOTALTRACKS=%x" -T "GENRE=%m" -T "ALBUMARTIST=%v" -T "ALBUM ARTIST=%v" -T "COMMENT=EAC Secure Mode, Test & Copy, AccurateRip, FLAC -8" %s

TOC of the extracted CD

     Track |   Start  |  Length  | Start sector | End sector
    ---------------------------------------------------------
        1  |  0:00.00 |  4:34.38 |         0    |    20587
        2  |  4:34.38 |  4:13.25 |     20588    |    39587
        3  |  8:47.63 |  4:15.73 |     39588    |    58785
        4  | 13:03.61 |  4:31.66 |     58786    |    79176
        5  | 17:35.52 |  4:11.53 |     79177    |    98054
        6  | 21:47.30 |  4:50.35 |     98055    |   119839
        7  | 26:37.65 |  4:45.74 |    119840    |   141288
        8  | 31:23.64 |  4:59.22 |    141289    |   163735
        9  | 36:23.11 |  3:17.15 |    163736    |   178525
       10  | 39:40.26 |  4:14.04 |    178526    |   197579
       11  | 43:54.30 |  3:27.41 |    197580    |   213145
       12  | 47:21.71 |  4:23.40 |    213146    |   232910
       13  | 51:45.36 |  3:13.73 |    232911    |   247458
       14  | 54:59.34 |  3:03.13 |    247459    |   261196
       15  | 58:02.47 |  3:42.28 |    261197    |   277874
       16  | 61:45.00 |  4:08.52 |    277875    |   296526
       17  | 65:53.52 |  4:34.36 |    296527    |   317112
       18  | 70:28.13 |  5:10.58 |    317113    |   340420

Track  1

     Filename G:\Temp\01 - Wheelchair.wav

     Pre-gap length  0:00:02.00

     Peak level 99.8 %
     Track quality 100.0 %
     Test CRC 9442F0FC
     Copy CRC 9442F0FC
     Track not present in AccurateRip database
     Copy OK

Track  2

     Filename G:\Temp\02 - Move.wav

     Pre-gap length  0:00:01.36

     Peak level 99.8 %
     Track quality 99.9 %
     Test CRC D3F2DB42
     Copy CRC D3F2DB42
     Track not present in AccurateRip database
     Copy OK

Track  3

     Filename G:\Temp\03 - Sweet Simone (Demo).wav

     Pre-gap length  0:00:01.62

     Peak level 85.1 %
     Track quality 100.0 %
     Test CRC 970628B0
     Copy CRC 970628B0
     Track not present in AccurateRip database
     Copy OK

Track  4

     Filename G:\Temp\04 - Strange Colour Blue (Alt).wav

     Pre-gap length  0:00:02.41

     Peak level 97.4 %
     Track quality 100.0 %
     Test CRC 08A9088C
     Copy CRC 08A9088C
     Track not present in AccurateRip database
     Copy OK

Track  5

     Filename G:\Temp\05 - Highway 2 000 000.wav

     Pre-gap length  0:00:00.70

     Peak level 98.1 %
     Track quality 99.9 %
     Test CRC FA2DE72C
     Copy CRC FA2DE72C
     Track not present in AccurateRip database
     Copy OK

Track  6

     Filename G:\Temp\06 - Oceanliner.wav

     Pre-gap length  0:00:00.92

     Peak level 98.2 %
     Track quality 100.0 %
     Test CRC 02E7609D
     Copy CRC 02E7609D
     Track not present in AccurateRip database
     Copy OK

Track  7

     Filename G:\Temp\07 - The Riverbed.wav

     Pre-gap length  0:00:02.92

     Peak level 100.0 %
     Track quality 100.0 %
     Test CRC C1850A06
     Copy CRC C1850A06
     Track not present in AccurateRip database
     Copy OK

Track  8

     Filename G:\Temp\08 - Tonight I Have No Words For You.wav

     Pre-gap length  0:00:01.06

     Peak level 97.1 %
     Track quality 100.0 %
     Test CRC 6E56FDA5
     Copy CRC 6E56FDA5
     Track not present in AccurateRip database
     Copy OK

Track  9

     Filename G:\Temp\09 - 1990.wav

     Pre-gap length  0:00:01.89

     Peak level 96.4 %
     Track quality 100.0 %
     Test CRC A7A7FCBA
     Copy CRC A7A7FCBA
     Track not present in AccurateRip database
     Copy OK

Track 10

     Filename G:\Temp\10 - I'm Life's Wonderful Way Of Letting You Down.wav

     Pre-gap length  0:00:02.20

     Peak level 97.1 %
     Track quality 100.0 %
     Test CRC EDCE8174
     Copy CRC EDCE8174
     Track not present in AccurateRip database
     Copy OK

Track 11

     Filename G:\Temp\11 - Bill Skins Fifth.wav

     Pre-gap length  0:00:01.50

     Peak level 93.1 %
     Track quality 99.9 %
     Test CRC E3565155
     Copy CRC E3565155
     Track not present in AccurateRip database
     Copy OK

Track 12

     Filename G:\Temp\12 - Mother Of Earth.wav

     Peak level 96.9 %
     Track quality 100.0 %
     Test CRC 74423F6F
     Copy CRC 74423F6F
     Track not present in AccurateRip database
     Copy OK

Track 13

     Filename G:\Temp\13 - Legends And Bones (From ''The Shit City Sessions'').wav

     Pre-gap length  0:00:01.84

     Peak level 96.6 %
     Track quality 100.0 %
     Test CRC 13CA7FBE
     Copy CRC 13CA7FBE
     Track not present in AccurateRip database
     Copy OK

Track 14

     Filename G:\Temp\14 - Step Into My Mirror (From ''The Shit City Sessions'').wav

     Pre-gap length  0:00:01.80

     Peak level 97.0 %
     Track quality 100.0 %
     Test CRC DB3B4AA3
     Copy CRC DB3B4AA3
     Track not present in AccurateRip database
     Copy OK

Track 15

     Filename G:\Temp\15 - Hush Sleep Tonight (1996 Demo).wav

     Pre-gap length  0:00:01.72

     Peak level 97.9 %
     Track quality 100.0 %
     Test CRC C27A9ECA
     Copy CRC C27A9ECA
     Track not present in AccurateRip database
     Copy OK

Track 16

     Filename G:\Temp\16 - Shine (1996 Demo).wav

     Pre-gap length  0:00:01.04

     Peak level 99.8 %
     Track quality 99.9 %
     Test CRC 562859E9
     Copy CRC 562859E9
     Track not present in AccurateRip database
     Copy OK

Track 17

     Filename G:\Temp\17 - I'm In Love With You.wav

     Pre-gap length  0:00:03.22

     Peak level 99.8 %
     Track quality 100.0 %
     Test CRC 1F871600
     Copy CRC 1F871600
     Track not present in AccurateRip database
     Copy OK

Track 18

     Filename G:\Temp\18 - This Must Be The Song That Will Pay My Bills (Demo).wav

     Pre-gap length  0:00:03.26

     Peak level 99.3 %
     Track quality 100.0 %
     Test CRC 2E107487
     Copy CRC 2E107487
     Track not present in AccurateRip database
     Copy OK

None of the tracks are present in the AccurateRip database

No errors occurred

End of status report
Код:
Код:
-----------------------

DON'T MODIFY THIS FILE

-----------------------

PERFORMER: auCDtect Task Manager, ver. 1.5.1RC4 build 1.5.1.5
Copyright (c) 2008-2010 y-soft. All rights reserved
http:/y-soft.org

ANALYZER: auCDtect: CD records authenticity detector, version 0.8.2
Copyright (c) 2004 Oleg Berngardt. All rights reserved.
Copyright (c) 2004 Alexander Djourik. All rights reserved.

FILE: 18 - This Must Be The Song That Will Pay My Bills (Demo).flac
  Size: 31704380 Hash: A14F358729FA13B28D634232AD43485A Accuracy: -m0
  Conclusion: CDDA 100%
  Signature: F7C44043DB848162CA10754A1ECF9F3195D966F3
FILE: 17 - I'm In Love With You.flac
  Size: 25758403 Hash: BF111F718FDC0AE6D9D195B6121DFBFE Accuracy: -m0
  Conclusion: CDDA 100%
  Signature: 4C34F134F0A44FD376A6A684B7C52782AAC19819
FILE: 16 - Shine (1996 Demo).flac
  Size: 24482555 Hash: DFE4360AFDE89F24E3399CB458D82C4E Accuracy: -m0
  Conclusion: CDDA 100%
  Signature: BD921DE74E72E1B46EFA1E9411451C77E4F56B5C
FILE: 15 - Hush Sleep Tonight (1996 Demo).flac
  Size: 24362019 Hash: 9C62D341305889C56D09FB0CA2CA8D7E Accuracy: -m0
  Conclusion: CDDA 100%
  Signature: 7D606F93D900FD341367695203086E985725D318
FILE: 14 - Step Into My Mirror (From ''The Shit City Sessions'').flac
  Size: 19613994 Hash: AC78B892CE6174329291AD6A08AFB7E8 Accuracy: -m0
  Conclusion: CDDA 100%
  Signature: 855C95BD535E833676562549A9DF7B635BFD648A
FILE: 13 - Legends And Bones (From ''The Shit City Sessions'').flac
  Size: 16761091 Hash: D191CE8EEB5861F1654ED05A7E77B22D Accuracy: -m0
  Conclusion: CDDA 100%
  Signature: 095FF9DDC7750A5FDB96C31824931E48BDF4B219
FILE: 12 - Mother Of Earth.flac
  Size: 31027737 Hash: DAFE2AE18CCF097946F2BD3F569A2E3A Accuracy: -m0
  Conclusion: CDDA 99%
  Signature: 552536FFDA9D4683AD5213BDE5DBD0D846EF0AF7
FILE: 11 - Bill Skins Fifth.flac
  Size: 15781137 Hash: C883759BCB3B5FADAC4599A3C33C8FBD Accuracy: -m0
  Conclusion: CDDA 99%
  Signature: 24E6FCD7BD7F7FEEC4E816E6B85E55F21FC94276
FILE: 10 - I'm Life's Wonderful Way Of Letting You Down.flac
  Size: 27968480 Hash: AB44AE341657086CDCF7C1149413901E Accuracy: -m0
  Conclusion: CDDA 100%
  Signature: 0D902555C34BC00B6FF900700E0E6D37530899A2
FILE: 09 - 1990.flac
  Size: 25102790 Hash: EA56C8AFBD97FFC101A3D6F6DB149D87 Accuracy: -m0
  Conclusion: CDDA 100%
  Signature: BD5AEE34D15223EA44870AA2D750A1E3C832EDB4
FILE: 08 - Tonight I Have No Words For You.flac
  Size: 35217664 Hash: BD054FE339963391B9DBF81F8CC6EA79 Accuracy: -m0
  Conclusion: CDDA 99%
  Signature: 2B368F62A1D5A2F36D7999D5F013985886B46F1C
FILE: 07 - The Riverbed.flac
  Size: 29678021 Hash: B46AD0609BF3AA2F6B13A5F14A24594E Accuracy: -m0
  Conclusion: CDDA 100%
  Signature: EB8653BDA5579809A8FC64F41A50E9D2E6F69445
FILE: 06 - Oceanliner.flac
  Size: 38480062 Hash: 519D69D45C92523737DB4CC438A172AA Accuracy: -m0
  Conclusion: CDDA 100%
  Signature: 75D9027DEE09628DD746B9A2BF5B09AE993BEA9C
FILE: 05 - Highway 2 000 000.flac
  Size: 32214161 Hash: C600712B4B052850D92ADC36201AB9A9 Accuracy: -m0
  Conclusion: CDDA 100%
  Signature: 05A9991F938080BE8F541540C1F20D4D2B13B239
FILE: 04 - Strange Colour Blue (Alt).flac
  Size: 24399232 Hash: 2020714D3A6F0C6F7106A8CEA47AFC35 Accuracy: -m0
  Conclusion: CDDA 100%
  Signature: C41D6A668B6DA023E056B8FA7CB2D2472AFA6EBF
FILE: 03 - Sweet Simone (Demo).flac
  Size: 23365844 Hash: 721EF85146D576B36ADA483809B88445 Accuracy: -m0
  Conclusion: CDDA 100%
  Signature: EED58DF1DFE65E932E77CF7BF4F8CB37D44D47D8
FILE: 02 - Move.flac
  Size: 28693748 Hash: 1045DB98D2798A9D69B7D32423693E0C Accuracy: -m0
  Conclusion: CDDA 100%
  Signature: 2B2733DE1BF11DE82FDC63BEDF7D9FDE276E3077
FILE: 01 - Wheelchair.flac
  Size: 32555899 Hash: 71DEA809E82193A718B8B1E9AA788F73 Accuracy: -m0
  Conclusion: CDDA 100%
  Signature: C9AB1FD4BBEEB67CC8C5A161503B1F68BE25708F
Продолжительность: 01:15:39
FLAC (tracks+.cue)
Первый диск - ремастер оригинального альбома 1999 года. Второй диск: ремастер бонусов с расширенного издания альбома (первые три трека), песни с ранних EP, не издававшиеся ранее песни, демки.
#777Треклист:

01. Black Mambo (5:55)
02. Step Into This Room and Dance for Me (5:14)
03. Nightly Disease Part II (3:29)
04. Lucy One (4:49)
05. Hands Up - I Love You (5:37)
06. A Deadend Mind (4:51)
07. The Frontman (4:43)
08. We Are Go (4:48)
09. Into Heartbeats (4:32)
10. Sister (9:02)
11. Two Black Bones (5:22)
12. Only When You're gone (6:31)
Код:
Код:
Exact Audio Copy V0.99 prebeta 3 from 28. July 2007

EAC extraction logfile from 8. January 2010, 21:17

Madrugada / The Nightly Disease Vol. I

Used drive  : HL-DT-STDVDRAM GT20N   Adapter: 0  ID: 1

Read mode               : Secure
Utilize accurate stream : Yes
Defeat audio cache      : Yes
Make use of C2 pointers : No

Read offset correction                      : 667
Overread into Lead-In and Lead-Out          : No
Fill up missing offset samples with silence : Yes
Delete leading and trailing silent blocks   : No
Null samples used in CRC calculations       : Yes
Used interface                              : Native Win32 interface for Win NT & 2000
Gap handling                                : Appended to previous track

Used output format              : User Defined Encoder
Selected bitrate                : 128 kBit/s
Quality                         : High
Add ID3 tag                     : No
Command line compressor         : C:\Program Files (x86)\Exact Audio Copy\FLAC\FLAC.EXE
Additional command line options : -8 -V -T "ARTIST=%a" -T "TITLE=%t" -T "ALBUM=%g" -T "DATE=%y" -T "TRACKNUMBER=%n" -T "GENRE=%m" -T "COMMENT=%e" %s -o %d

TOC of the extracted CD

     Track |   Start  |  Length  | Start sector | End sector
    ---------------------------------------------------------
        1  |  0:00.00 |  5:54.65 |         0    |    26614
        2  |  5:54.65 |  5:13.60 |     26615    |    50149
        3  | 11:08.50 |  3:29.02 |     50150    |    65826
        4  | 14:37.52 |  4:49.33 |     65827    |    87534
        5  | 19:27.10 |  5:37.12 |     87535    |   112821
        6  | 25:04.22 |  4:51.25 |    112822    |   134671
        7  | 29:55.47 |  4:43.10 |    134672    |   155906
        8  | 34:38.57 |  4:48.15 |    155907    |   177521
        9  | 39:26.72 |  4:31.50 |    177522    |   197896
       10  | 43:58.47 |  9:01.68 |    197897    |   238539
       11  | 53:00.40 |  5:22.22 |    238540    |   262711
       12  | 58:22.62 |  6:30.65 |    262712    |   292026

Track  1

     Filename C:\Users\USER\01. Madrugada - Black Mambo.wav

     Pre-gap length  0:00:02.00

     Peak level 99.8 %
     Track quality 100.0 %
     Test CRC 769D82E6
     Copy CRC 769D82E6
     Accurately ripped (confidence 69)  [7C8C0D01]
     Copy OK

Track  2

     Filename C:\Users\USER\02. Madrugada - Step Into This Room and Dance for Me.wav

     Peak level 99.8 %
     Track quality 99.9 %
     Test CRC A0C71988
     Copy CRC A0C71988
     Accurately ripped (confidence 69)  [EB163D9A]
     Copy OK

Track  3

     Filename C:\Users\USER\03. Madrugada - Nightly Disease Part II.wav

     Pre-gap length  0:00:00.77

     Peak level 99.8 %
     Track quality 100.0 %
     Test CRC 5C0B7DF7
     Copy CRC 5C0B7DF7
     Accurately ripped (confidence 68)  [8037618D]
     Copy OK

Track  4

     Filename C:\Users\USER\04. Madrugada - Lucy One.wav

     Peak level 99.8 %
     Track quality 100.0 %
     Test CRC 6BAB22EF
     Copy CRC 6BAB22EF
     Accurately ripped (confidence 70)  [27418C76]
     Copy OK

Track  5

     Filename C:\Users\USER\05. Madrugada - Hands Up - I Love You.wav

     Peak level 99.8 %
     Track quality 100.0 %
     Test CRC 519BDC52
     Copy CRC 519BDC52
     Accurately ripped (confidence 69)  [6DE1805B]
     Copy OK

Track  6

     Filename C:\Users\USER\06. Madrugada - A Deadend Mind.wav

     Pre-gap length  0:00:00.76

     Peak level 99.8 %
     Track quality 100.0 %
     Test CRC D4D3F12F
     Copy CRC D4D3F12F
     Accurately ripped (confidence 69)  [57C58FE2]
     Copy OK

Track  7

     Filename C:\Users\USER\07. Madrugada - The Frontman.wav

     Peak level 99.8 %
     Track quality 100.0 %
     Test CRC 90ADC774
     Copy CRC 90ADC774
     Accurately ripped (confidence 71)  [24A61F32]
     Copy OK

Track  8

     Filename C:\Users\USER\08. Madrugada - We Are Go.wav

     Peak level 99.8 %
     Track quality 99.9 %
     Test CRC 1F757E92
     Copy CRC 1F757E92
     Accurately ripped (confidence 69)  [2C73B4B8]
     Copy OK

Track  9

     Filename C:\Users\USER\09. Madrugada - Into Heartbeats.wav

     Pre-gap length  0:00:00.40

     Peak level 99.8 %
     Track quality 100.0 %
     Test CRC 6759B109
     Copy CRC 6759B109
     Accurately ripped (confidence 69)  [8C12C983]
     Copy OK

Track 10

     Filename C:\Users\USER\10. Madrugada - Sister.wav

     Peak level 99.8 %
     Track quality 99.9 %
     Test CRC E2DE648C
     Copy CRC E2DE648C
     Accurately ripped (confidence 70)  [453A93FB]
     Copy OK

Track 11

     Filename C:\Users\USER\11. Madrugada - Two Black Bones.wav

     Peak level 99.8 %
     Track quality 100.0 %
     Test CRC 194BB8ED
     Copy CRC 194BB8ED
     Accurately ripped (confidence 69)  [069E5B52]
     Copy OK

Track 12

     Filename C:\Users\USER\12. Madrugada - Only When You're gone.wav

     Pre-gap length  0:00:00.49

     Peak level 99.8 %
     Track quality 99.9 %
     Test CRC A60A7E7B
     Copy CRC A60A7E7B
     Accurately ripped (confidence 64)  [4613C84C]
     Copy OK

All tracks accurately ripped

No errors occurred

End of status report
Код:
Код:
-----------------------

DON'T MODIFY THIS FILE

-----------------------

PERFORMER: auCDtect Task Manager, ver. 1.5.1RC4 build 1.5.1.5
Copyright (c) 2008-2010 y-soft. All rights reserved
http:/y-soft.org

ANALYZER: auCDtect: CD records authenticity detector, version 0.8.2
Copyright (c) 2004 Oleg Berngardt. All rights reserved.
Copyright (c) 2004 Alexander Djourik. All rights reserved.

FILE: 12. Madrugada - Only When You're gone.flac
  Size: 35506043 Hash: 6BEE940153E6BB2AD452AD2387530C19 Accuracy: -m0
  Conclusion: CDDA 100%
  Signature: 10E4E919CC97EBF1C0F8821A279A3C0825DAB6F1
FILE: 11. Madrugada - Two Black Bones.flac
  Size: 34988686 Hash: E9CEEA583AE1401F356E20C947C46468 Accuracy: -m0
  Conclusion: CDDA 100%
  Signature: DF7AF0BA61CEC02C8DE3C38DB0AE3226CE6D1683
FILE: 10. Madrugada - Sister.flac
  Size: 54103527 Hash: A65F0CA95A9C7644360ECB49B4BF331F Accuracy: -m0
  Conclusion: CDDA 100%
  Signature: 081D16E96B79606A9BE36C21383B61A7117AEC3C
FILE: 09. Madrugada - Into Heartbeats.flac
  Size: 28021216 Hash: 6C1E0BB53D8C525D2FC26B4887668FE3 Accuracy: -m0
  Conclusion: CDDA 99%
  Signature: E02FE25E499F45A5869288DDDEA54283D0CF3424
FILE: 08. Madrugada - We Are Go.flac
  Size: 36747410 Hash: 67AF99CB9F0C91857497BA65730A4E8D Accuracy: -m0
  Conclusion: CDDA 100%
  Signature: 2BEABC06A958482DF541584F94FE2A852D6C470F
FILE: 07. Madrugada - The Frontman.flac
  Size: 31972827 Hash: DC124389658FC2EFF0EE20C51F2F0DAF Accuracy: -m0
  Conclusion: CDDA 100%
  Signature: C3CAF21881DD31B4E389783C35471A39048EC594
FILE: 06. Madrugada - A Deadend Mind.flac
  Size: 27867438 Hash: 5F851408BCEE78EAE162BB95658A1961 Accuracy: -m0
  Conclusion: CDDA 100%
  Signature: 09FA7AA7594F884A03EDA7B37E9171990547A754
FILE: 05. Madrugada - Hands Up - I Love You.flac
  Size: 36129651 Hash: 71E23160066C4F499AD69C65D0488C0C Accuracy: -m0
  Conclusion: CDDA 100%
  Signature: 86D65FCED5FF7F6405814BB450A06F30EC1221F8
FILE: 04. Madrugada - Lucy One.flac
  Size: 37470632 Hash: 08136A99A800F450538975F0A94F369A Accuracy: -m0
  Conclusion: CDDA 100%
  Signature: 247595BF9E49780F235762C51180556317D111A2
FILE: 03. Madrugada - Nightly Disease Part II.flac
  Size: 26364025 Hash: D11CCFC45B6C4D3E4075A113E247AC50 Accuracy: -m0
  Conclusion: CDDA 100%
  Signature: 6EBF30F5FC2E4C23B2B2DB6C09953413A0C31E56
FILE: 02. Madrugada - Step Into This Room and Dance for Me.flac
  Size: 30089278 Hash: 430021B808F721619BD81AC1B7B4F09D Accuracy: -m0
  Conclusion: CDDA 100%
  Signature: A69B20A6514A49883B5EEA89EAD087D4F8178A98
FILE: 01. Madrugada - Black Mambo.flac
  Size: 36950228 Hash: 4E278D97E0C1D51C75AAE64EAB3CB278 Accuracy: -m0
  Conclusion: CDDA 100%
  Signature: 1947E9B473AC7E4B89BF49DF57F1B222B165CC7E
Продолжительность: 01:04:54
FLAC (tracks+.cue)
#777Треклист:

01. Blood Shot Adult Commitment (4:56)
02. Ready (2:51)
03. I Don't Fit (4:21)
04. Madrugada (5:15)
05. 7 Seconds (3:36)
06. Proxy (5:20)
07. Come Back Billy Pilgrim (3:56)
08. Get Back in Line (4:13)
09. Majesty (4:23)
10. Try (3:24)
11. Got You (Feat. Neil McNasty) (10:53)
Код:
Код:
Отчёт EAC об извлечении, выполненном 8. июня 2008, 6:25 для диска:
Madrugada / Grit

Дисковод: Optiarc DVD RW AD-7173A   Adapter: 3  ID: 0
Режим чтения: Достоверный (C2: нет, Точный поток: да, Отключение кэша: да)
Коррекция смещения при чтении: 48
Способность читать области Lead-in и Lead-out : Нет

Выходной формат: Внутренние WAV-операции
                     44.100 Гц; 16 бит; стерео

Другие параметры:
    Заполнение пропущенных сэмплов тишиной : Да
    Удаление блоков с тишиной в начале и конце : Нет
    Установленный внешний ASPI-интерфейс

Характеристики диапазона извлечения и сообщения об ошибках
Выбранный диапазон
     Имя файла D:\Loss less\MadrgudaThe Deep End\Madrugada - Grit.wav

     Пиковый уровень 100.0 %
     Качество диапазона 100.0 %
     CRC B8199F56
     Копирование... OK

Ошибок не произошло

Конец отчёта
Код:
Код:
-----------------------

DON'T MODIFY THIS FILE

-----------------------

PERFORMER: auCDtect Task Manager, ver. 1.5.1RC4 build 1.5.1.5
Copyright (c) 2008-2010 y-soft. All rights reserved
http:/y-soft.org

ANALYZER: auCDtect: CD records authenticity detector, version 0.8.2
Copyright (c) 2004 Oleg Berngardt. All rights reserved.
Copyright (c) 2004 Alexander Djourik. All rights reserved.

FILE: Madrugada - Grit.ape
  Size: 362884068 Hash: 19FF48A91DB52FED0161413507BDE36F Accuracy: -m0
  Conclusion: CDDA 100%
  Signature: FA7218D1387DDC799F62E234E99A496BD2137700
Продолжительность: 00:53:09
APE (image + .cue)
#777Треклист:

01. The Kids Are On High Street (4:58)
02. On Your Side (3:54)
03. Hold On To You (6:14)
04. Stories From The Streets (5:20)
05. Running Out Of Time (6:08)
06. The Lost Gospel (3:54)
07. Elektro Vakuum (4:50)
08. Subterranean Sunlight (3:59)
09. Hard To Come back (4:04)
10. Ramona (3:55)
11. Slow Builder (6:16)
12. Sail Away (6:09)
Код:
Код:
Отчёт EAC об извлечении, выполненном 4. июня 2008, 13:17 для диска:
Madrugada / The Deep End

Дисковод: Optiarc DVD RW AD-7173A   Adapter: 3  ID: 0
Режим чтения: Достоверный (C2: нет, Точный поток: да, Отключение кэша: да)
Коррекция смещения при чтении: 48
Способность читать области Lead-in и Lead-out : Нет

Выходной формат: Внутренние WAV-операции
                     44.100 Гц; 16 бит; стерео

Другие параметры:
    Заполнение пропущенных сэмплов тишиной : Да
    Удаление блоков с тишиной в начале и конце : Нет
    Установленный внешний ASPI-интерфейс

Характеристики диапазона извлечения и сообщения об ошибках
Выбранный диапазон
     Имя файла D:\Loss less\MadrgudaThe Deep End\Madrugada - The Deep End.wav

     Пиковый уровень 98.9 %
     Качество диапазона 99.9 %
     CRC E9F6510D
     Копирование... OK

Ошибок не произошло

Конец отчёта
Код:
Код:
-----------------------

DON'T MODIFY THIS FILE

-----------------------

PERFORMER: auCDtect Task Manager, ver. 1.5.1RC4 build 1.5.1.5
Copyright (c) 2008-2010 y-soft. All rights reserved
http:/y-soft.org

ANALYZER: auCDtect: CD records authenticity detector, version 0.8.2
Copyright (c) 2004 Oleg Berngardt. All rights reserved.
Copyright (c) 2004 Alexander Djourik. All rights reserved.

FILE: Madrugada - The Deep End.ape
  Size: 404999628 Hash: 5071BF67B67870F2B583AA243392DFDA Accuracy: -m0
  Conclusion: CDDA 100%
  Signature: AD76F6380DEF816C19F79469D71BF6992CA3D8C0
Продолжительность: 00:59:42
APE (image + .cue)
#777Треклист:

01. Whatever Happened To You? (5:38)
02. The Hour of The Wolf (4:27)
03. Look Away Lucifer (5:11)
04. Honey Bee (5:33)
05. New Woman/New Man (4:20)
06. What's On Your Mind? (4:01)
07. Highway Of Light (6:36)
08. Valley of Deception (5:07)
09. Our Time Won't Live That Long (7:17)
Код:
Код:
Отчёт EAC об извлечении, выполненном 8. июня 2008, 7:06 для диска:
Madrugada / Madrugada

Дисковод: Optiarc DVD RW AD-7173A   Adapter: 3  ID: 0
Режим чтения: Достоверный (C2: нет, Точный поток: да, Отключение кэша: да)
Коррекция смещения при чтении: 48
Способность читать области Lead-in и Lead-out : Нет

Выходной формат: Внутренние WAV-операции
                     44.100 Гц; 16 бит; стерео

Другие параметры:
    Заполнение пропущенных сэмплов тишиной : Да
    Удаление блоков с тишиной в начале и конце : Нет
    Установленный внешний ASPI-интерфейс

Характеристики диапазона извлечения и сообщения об ошибках
Выбранный диапазон
     Имя файла D:\Loss less\MadrgudaThe Deep End\Madrugada - Madrugada.wav

     Пиковый уровень 100.0 %
     Качество диапазона 100.0 %
     CRC 5A613438
     Копирование... OK

Ошибок не произошло

Конец отчёта
Код:
Код:
-----------------------

DON'T MODIFY THIS FILE

-----------------------

PERFORMER: auCDtect Task Manager, ver. 1.5.1RC4 build 1.5.1.5
Copyright (c) 2008-2010 y-soft. All rights reserved
http:/y-soft.org

ANALYZER: auCDtect: CD records authenticity detector, version 0.8.2
Copyright (c) 2004 Oleg Berngardt. All rights reserved.
Copyright (c) 2004 Alexander Djourik. All rights reserved.

FILE: Madrugada - Madrugada.ape
  Size: 304441788 Hash: 2EDC5CD2BA2918383512350CBEF77DC3 Accuracy: -m0
  Conclusion: CDDA 100%
  Signature: 45B050F19F18201C5513E6A3D5392007268CF001
Продолжительность: 00:48:09
APE (image + .cue)
Compilation:
#777Треклист:

01. The Kids Are On High Street (4:59)
02. 7 Seconds (3:36)
03. Look Away Lucifer (5:12)
04. Belladonna (4:19)
05. Blood Shot Adult Commitment (4:56)
06. Higher (2010 Digital Remaster) (4:47)
07. Beautyproof (2010 Digital Remaster) (3:58)
08. Black Mambo (5:51)
09. Salt (2010 Digital Remaster) (4:47)
10. Stories From The Streets (5:18)
11. I Don't Fit (4:21)
12. Majesty (Live) (6:43)
13. You Better Leave (Live) (4:30)
14. All This Wanting To Be Free (5:26)
Код:
Код:
Exact Audio Copy V1.0 beta 1 from 15. November 2010

EAC extraction logfile from 29. November 2010, 17:34

Madrugada / The Best Of Madrugada (CD1)

Used drive  : ATAPI   iHBS112   2   Adapter: 1  ID: 1

Read mode               : Secure
Utilize accurate stream : Yes
Defeat audio cache      : Yes
Make use of C2 pointers : No

Read offset correction                      : 6
Overread into Lead-In and Lead-Out          : No
Fill up missing offset samples with silence : Yes
Delete leading and trailing silent blocks   : No
Null samples used in CRC calculations       : Yes
Used interface                              : Native Win32 interface for Win NT & 2000
Gap handling                                : Appended to previous track

Used output format              : User Defined Encoder
Selected bitrate                : 768 kBit/s
Quality                         : High
Add ID3 tag                     : No
Command line compressor         : C:\Program Files (x86)\Exact Audio Copy\Flac\flac.exe
Additional command line options : -8 -V -T "ARTIST=%a" -T "TITLE=%t" -T "ALBUM=%g" -T "DATE=%y" -T "TRACKNUMBER=%n" -T "TOTALTRACKS=%x" -T "GENRE=%m" -T "ALBUMARTIST=%v" -T "ALBUM ARTIST=%v" -T "COMMENT=EAC Secure Mode, Test & Copy, AccurateRip, FLAC -8" %s

TOC of the extracted CD

     Track |   Start  |  Length  | Start sector | End sector
    ---------------------------------------------------------
        1  |  0:00.00 |  4:58.59 |         0    |    22408
        2  |  4:58.59 |  3:36.25 |     22409    |    38633
        3  |  8:35.09 |  5:11.59 |     38634    |    62017
        4  | 13:46.68 |  4:19.18 |     62018    |    81460
        5  | 18:06.11 |  4:55.74 |     81461    |   103659
        6  | 23:02.10 |  4:46.45 |    103660    |   125154
        7  | 27:48.55 |  3:57.56 |    125155    |   142985
        8  | 31:46.36 |  5:51.24 |    142986    |   169334
        9  | 37:37.60 |  4:47.33 |    169335    |   190892
       10  | 42:25.18 |  5:18.25 |    190893    |   214767
       11  | 47:43.43 |  4:21.35 |    214768    |   234377
       12  | 52:05.03 |  6:43.02 |    234378    |   264604
       13  | 58:48.05 |  4:29.73 |    264605    |   284852
       14  | 63:18.03 |  5:25.64 |    284853    |   309291

Track  1

     Filename C:\01 - The Kids Are On High Street.wav

     Pre-gap length  0:00:02.00

     Peak level 97.7 %
     Extraction speed 5.5 X
     Track quality 100.0 %
     Test CRC 3A1CCC33
     Copy CRC 3A1CCC33
     Track not present in AccurateRip database
     Copy OK

Track  2

     Filename C:\02 - 7 Seconds.wav

     Pre-gap length  0:00:01.06

     Peak level 100.0 %
     Extraction speed 5.9 X
     Track quality 100.0 %
     Test CRC 036841C1
     Copy CRC 036841C1
     Track not present in AccurateRip database
     Copy OK

Track  3

     Filename C:\03 - Look Away Lucifer.wav

     Peak level 97.5 %
     Extraction speed 5.8 X
     Track quality 99.9 %
     Test CRC EA7858A4
     Copy CRC EA7858A4
     Track not present in AccurateRip database
     Copy OK

Track  4

     Filename C:\04 - Belladonna.wav

     Peak level 99.8 %
     Extraction speed 7.1 X
     Track quality 100.0 %
     Test CRC 537F0ECE
     Copy CRC 537F0ECE
     Track not present in AccurateRip database
     Copy OK

Track  5

     Filename C:\05 - Blood Shot Adult Commitment.wav

     Peak level 98.8 %
     Extraction speed 7.7 X
     Track quality 100.0 %
     Test CRC 8D578C87
     Copy CRC 8D578C87
     Track not present in AccurateRip database
     Copy OK

Track  6

     Filename C:\06 - Higher (2010 Digital Remaster).wav

     Peak level 100.0 %
     Extraction speed 8.1 X
     Track quality 100.0 %
     Test CRC 1BBE7AE9
     Copy CRC 1BBE7AE9
     Track not present in AccurateRip database
     Copy OK

Track  7

     Filename C:\07 - Beautyproof (2010 Digital Remaster).wav

     Peak level 99.8 %
     Extraction speed 6.8 X
     Track quality 99.9 %
     Test CRC 58471137
     Copy CRC 58471137
     Track not present in AccurateRip database
     Copy OK

Track  8

     Filename C:\08 - Black Mambo.wav

     Peak level 99.8 %
     Extraction speed 8.0 X
     Track quality 99.9 %
     Test CRC FAD4522E
     Copy CRC FAD4522E
     Track not present in AccurateRip database
     Copy OK

Track  9

     Filename C:\09 - Salt (2010 Digital Remaster).wav

     Peak level 99.8 %
     Extraction speed 9.4 X
     Track quality 100.0 %
     Test CRC 4342F832
     Copy CRC 4342F832
     Track not present in AccurateRip database
     Copy OK

Track 10

     Filename C:\10 - Stories From The Streets.wav

     Peak level 98.8 %
     Extraction speed 9.9 X
     Track quality 100.0 %
     Test CRC 026FA44F
     Copy CRC 026FA44F
     Track not present in AccurateRip database
     Copy OK

Track 11

     Filename C:\11 - I Don't Fit.wav

     Peak level 100.0 %
     Extraction speed 10.0 X
     Track quality 100.0 %
     Test CRC E69AA915
     Copy CRC E69AA915
     Track not present in AccurateRip database
     Copy OK

Track 12

     Filename C:\12 - Majesty (Live).wav

     Peak level 99.8 %
     Extraction speed 11.0 X
     Track quality 100.0 %
     Test CRC 76A4C7D8
     Copy CRC 76A4C7D8
     Track not present in AccurateRip database
     Copy OK

Track 13

     Filename C:\13 - You Better Leave (Live).wav

     Peak level 99.8 %
     Extraction speed 9.0 X
     Track quality 99.9 %
     Test CRC C4760234
     Copy CRC C4760234
     Track not present in AccurateRip database
     Copy OK

Track 14

     Filename C:\14 - All This Wanting To Be Free.wav

     Peak level 97.3 %
     Extraction speed 11.4 X
     Track quality 100.0 %
     Test CRC 2C92992C
     Copy CRC 2C92992C
     Track not present in AccurateRip database
     Copy OK

None of the tracks are present in the AccurateRip database

No errors occurred

End of status report

==== Log checksum BE913028D61739916B41E42E43C7EF77A50A46805A0BBAEB56003E853F64BC52 ====
Код:
Код:
-----------------------

DON'T MODIFY THIS FILE

-----------------------

PERFORMER: auCDtect Task Manager, ver. 1.5.1RC4 build 1.5.1.5
Copyright (c) 2008-2010 y-soft. All rights reserved
http:/y-soft.org

ANALYZER: auCDtect: CD records authenticity detector, version 0.8.2
Copyright (c) 2004 Oleg Berngardt. All rights reserved.
Copyright (c) 2004 Alexander Djourik. All rights reserved.

FILE: 14 - All This Wanting To Be Free.flac
  Size: 39841679 Hash: 938F472B698897BCDFF972547C7E5DAC Accuracy: -m0
  Conclusion: CDDA 100%
  Signature: D0D74FD5E727863C14FA4B8D150EBB3CE1CC57AD
FILE: 13 - You Better Leave (Live).flac
  Size: 32342563 Hash: AFA013C76B449E451E675B991C25E2E9 Accuracy: -m0
  Conclusion: CDDA 100%
  Signature: 07CFBFEA95E421012CC4C35ECD1277094C7C6A3B
FILE: 12 - Majesty (Live).flac
  Size: 46072155 Hash: 4F585F5026C2CF8CFAE405C23C1929AA Accuracy: -m0
  Conclusion: CDDA 43%
  Signature: E9F18BF4C63824B28AA07131118FF85239D42AC3
FILE: 11 - I Don't Fit.flac
  Size: 31900022 Hash: DCF26B1D47BBA971CFB771D95DD87BF5 Accuracy: -m0
  Conclusion: CDDA 100%
  Signature: 461994A84282E4CEA42E2EA4026C87D3FF1B68B1
FILE: 10 - Stories From The Streets.flac
  Size: 40902719 Hash: 5B07E27C5BA04323BB79EBDD54FD78FF Accuracy: -m0
  Conclusion: CDDA 100%
  Signature: 2D1B662F63A987017559752BE89DAC2C36ED15DB
FILE: 09 - Salt (2010 Digital Remaster).flac
  Size: 32540823 Hash: F4F791B88B363AEE0C9EEF5A6D6A2226 Accuracy: -m0
  Conclusion: CDDA 100%
  Signature: 7E60788C3EFED0C00D8C4293AB761AD4624556CF
FILE: 08 - Black Mambo.flac
  Size: 36750203 Hash: 0F24BF652CFBE2939605AE1D59F1AEF9 Accuracy: -m0
  Conclusion: CDDA 100%
  Signature: 7A346681DAAF397FDFFC9D9A00A0B0D7873F46F5
FILE: 07 - Beautyproof (2010 Digital Remaster).flac
  Size: 25309405 Hash: A0280CC43C76E7E6AF32C12DE9CB701D Accuracy: -m0
  Conclusion: CDDA 100%
  Signature: AB59A45D02C84D17B16E1E3BE0C742024CEC75EF
FILE: 06 - Higher (2010 Digital Remaster).flac
  Size: 37024914 Hash: A5069B3A67AC82B5F2B9A0527715A987 Accuracy: -m0
  Conclusion: CDDA 100%
  Signature: 6486D64189CD62E1BA22CC01C7720081AE674D7D
FILE: 05 - Blood Shot Adult Commitment.flac
  Size: 34595183 Hash: 25FC0B74D1AA1032571CC349E6E97572 Accuracy: -m0
  Conclusion: CDDA 100%
  Signature: CF82CA6253311E60BA3EAF4DB8EB12EA099D760C
FILE: 04 - Belladonna.flac
  Size: 33577735 Hash: 617C4CCBEE978CC7B6E26A163E9268E9 Accuracy: -m0
  Conclusion: CDDA 100%
  Signature: 72ECE3089B31FCE17AA6E4D96343E816ADEF9ABB
FILE: 03 - Look Away Lucifer.flac
  Size: 33840343 Hash: 646C33B610E9B8BE93FCE9A680DC932A Accuracy: -m0
  Conclusion: CDDA 99%
  Signature: BA1FCD98A2C512B2DFF9EB7A7F5F837F3CB690A3
FILE: 02 - 7 Seconds.flac
  Size: 29147223 Hash: C605D40D45D761C9BA675031FB8C9FC6 Accuracy: -m0
  Conclusion: CDDA 99%
  Signature: CC4A73CD0EF2A9500990F1B34F25DBF659625412
FILE: 01 - The Kids Are On High Street.flac
  Size: 36857973 Hash: 619A27A1F1AF5E2D77BEAF08AAFC7BC4 Accuracy: -m0
  Conclusion: CDDA 100%
  Signature: DEE236E7284D9AFCCAF8A5765D58285940F2F107
Продолжительность: 01:08:44
FLAC (tracks+.cue)
#777Треклист:

01. What's On Your Mind (4:02)
02. Hold On To You (6:14)
03. Strange Colour Blue (2010 Digital Remaster) (5:06)
04. Vocal (2010 Digital Remaster) (6:27)
05. Hands Up I Love You (5:37)
06. Majesty (4:23)
07. This Old House (2010 Digital Remaster) (5:08)
08. Lift Me (4:06)
09. Honey Bee (5:33)
10. Electric (2010 Digital Remaster) (4:53)
11. Quite Emotional (4:19)
12. Step Into This Room And Dance for Me (5:14)
13. A Deadend Mind (4:53)
14. Sail Away (6:09)
Код:
Код:
Exact Audio Copy V1.0 beta 1 from 15. November 2010

EAC extraction logfile from 29. November 2010, 18:45

Madrugada / The Best Of Madrugada (CD2)

Used drive  : ATAPI   iHBS112   2   Adapter: 1  ID: 1

Read mode               : Secure
Utilize accurate stream : Yes
Defeat audio cache      : Yes
Make use of C2 pointers : No

Read offset correction                      : 6
Overread into Lead-In and Lead-Out          : No
Fill up missing offset samples with silence : Yes
Delete leading and trailing silent blocks   : No
Null samples used in CRC calculations       : Yes
Used interface                              : Native Win32 interface for Win NT & 2000
Gap handling                                : Appended to previous track

Used output format              : User Defined Encoder
Selected bitrate                : 768 kBit/s
Quality                         : High
Add ID3 tag                     : No
Command line compressor         : C:\Program Files (x86)\Exact Audio Copy\Flac\flac.exe
Additional command line options : -8 -V -T "ARTIST=%a" -T "TITLE=%t" -T "ALBUM=%g" -T "DATE=%y" -T "TRACKNUMBER=%n" -T "TOTALTRACKS=%x" -T "GENRE=%m" -T "ALBUMARTIST=%v" -T "ALBUM ARTIST=%v" -T "COMMENT=EAC Secure Mode, Test & Copy, AccurateRip, FLAC -8" %s

TOC of the extracted CD

     Track |   Start  |  Length  | Start sector | End sector
    ---------------------------------------------------------
        1  |  0:00.00 |  4:01.56 |         0    |    18130
        2  |  4:01.56 |  6:14.32 |     18131    |    46212
        3  | 10:16.13 |  5:05.42 |     46213    |    69129
        4  | 15:21.55 |  6:27.09 |     69130    |    98163
        5  | 21:48.64 |  5:37.36 |     98164    |   123474
        6  | 27:26.25 |  4:23.11 |    123475    |   143210
        7  | 31:49.36 |  5:07.53 |    143211    |   166288
        8  | 36:57.14 |  4:05.56 |    166289    |   184719
        9  | 41:02.70 |  5:33.07 |    184720    |   209701
       10  | 46:36.02 |  4:52.71 |    209702    |   231672
       11  | 51:28.73 |  4:18.46 |    231673    |   251068
       12  | 55:47.44 |  5:13.72 |    251069    |   274615
       13  | 61:01.41 |  4:52.63 |    274616    |   296578
       14  | 65:54.29 |  6:09.28 |    296579    |   324281

Track  1

     Filename C:\01 - What's On Your Mind.wav

     Pre-gap length  0:00:02.00

     Peak level 98.5 %
     Extraction speed 1.6 X
     Track quality 99.9 %
     Test CRC 60BF21C9
     Copy CRC 60BF21C9
     Track not present in AccurateRip database
     Copy OK

Track  2

     Filename C:\02 - Hold On To You.wav

     Peak level 98.8 %
     Extraction speed 2.5 X
     Track quality 100.0 %
     Test CRC 606D2837
     Copy CRC 606D2837
     Track not present in AccurateRip database
     Copy OK

Track  3

     Filename C:\03 - Strange Colour Blue (2010 Digital Remaster).wav

     Peak level 99.8 %
     Extraction speed 2.7 X
     Track quality 100.0 %
     Test CRC C2641619
     Copy CRC C2641619
     Track not present in AccurateRip database
     Copy OK

Track  4

     Filename C:\04 - Vocal (2010 Digital Remaster).wav

     Peak level 99.8 %
     Extraction speed 3.0 X
     Track quality 100.0 %
     Test CRC C21015E4
     Copy CRC C21015E4
     Track not present in AccurateRip database
     Copy OK

Track  5

     Filename C:\05 - Hands Up I Love You.wav

     Peak level 99.8 %
     Extraction speed 3.2 X
     Track quality 100.0 %
     Test CRC 2E4EA197
     Copy CRC 2E4EA197
     Track not present in AccurateRip database
     Copy OK

Track  6

     Filename C:\06 - Majesty.wav

     Peak level 100.0 %
     Extraction speed 3.3 X
     Track quality 100.0 %
     Test CRC 86A33FD8
     Copy CRC 86A33FD8
     Track not present in AccurateRip database
     Copy OK

Track  7

     Filename C:\07 - This Old House (2010 Digital Remaster).wav

     Peak level 99.8 %
     Extraction speed 3.5 X
     Track quality 100.0 %
     Test CRC 5AB0D412
     Copy CRC 5AB0D412
     Track not present in AccurateRip database
     Copy OK

Track  8

     Filename C:\08 - Lift Me.wav

     Peak level 98.8 %
     Extraction speed 3.6 X
     Track quality 100.0 %
     Test CRC 55B7FBF9
     Copy CRC 55B7FBF9
     Track not present in AccurateRip database
     Copy OK

Track  9

     Filename C:\09 - Honey Bee.wav

     Peak level 99.3 %
     Extraction speed 3.9 X
     Track quality 100.0 %
     Test CRC 65BB49F5
     Copy CRC 65BB49F5
     Track not present in AccurateRip database
     Copy OK

Track 10

     Filename C:\10 - Electric (2010 Digital Remaster).wav

     Peak level 99.8 %
     Extraction speed 4.0 X
     Track quality 100.0 %
     Test CRC 9B10D755
     Copy CRC 9B10D755
     Track not present in AccurateRip database
     Copy OK

Track 11

     Filename C:\11 - Quite Emotional.wav

     Pre-gap length  0:00:01.38

     Peak level 99.4 %
     Extraction speed 4.0 X
     Track quality 100.0 %
     Test CRC 37A265E3
     Copy CRC 37A265E3
     Track not present in AccurateRip database
     Copy OK

Track 12

     Filename C:\12 - Step Into This Room And Dance for Me.wav

     Peak level 99.8 %
     Extraction speed 4.3 X
     Track quality 100.0 %
     Test CRC FA351300
     Copy CRC FA351300
     Track not present in AccurateRip database
     Copy OK

Track 13

     Filename C:\13 - A Deadend Mind.wav

     Peak level 99.8 %
     Extraction speed 4.4 X
     Track quality 100.0 %
     Test CRC 8050BD1E
     Copy CRC 8050BD1E
     Track not present in AccurateRip database
     Copy OK

Track 14

     Filename C:\14 - Sail Away.wav

     Pre-gap length  0:00:01.42

     Peak level 98.8 %
     Extraction speed 4.6 X
     Track quality 100.0 %
     Test CRC 71B14E09
     Copy CRC 71B14E09
     Track not present in AccurateRip database
     Copy OK

None of the tracks are present in the AccurateRip database

No errors occurred

End of status report

==== Log checksum 102B759D915B26BB7ED31409D00A1BE1D99B8B9CDB3428E8801F8AD7B6A1F9DA ====
Код:
Код:
-----------------------

DON'T MODIFY THIS FILE

-----------------------

PERFORMER: auCDtect Task Manager, ver. 1.5.1RC4 build 1.5.1.5
Copyright (c) 2008-2010 y-soft. All rights reserved
http:/y-soft.org

ANALYZER: auCDtect: CD records authenticity detector, version 0.8.2
Copyright (c) 2004 Oleg Berngardt. All rights reserved.
Copyright (c) 2004 Alexander Djourik. All rights reserved.

FILE: 14 - Sail Away.flac
  Size: 38554196 Hash: 7E51D5C2D954AB528FB3A084435BD5D8 Accuracy: -m0
  Conclusion: CDDA 99%
  Signature: 5192D1187F239FE1F30AC986A7691A411EBF2A33
FILE: 13 - A Deadend Mind.flac
  Size: 27826403 Hash: 4CB1E1E8D462A77CBE580E4FE6709360 Accuracy: -m0
  Conclusion: CDDA 100%
  Signature: A13E1BAB694E49A166D0588958A63B10497721C2
FILE: 12 - Step Into This Room And Dance for Me.flac
  Size: 30088856 Hash: 0EF2A08E1A428E6591EDEE1F891F695C Accuracy: -m0
  Conclusion: CDDA 100%
  Signature: 3BBD0B7BA86268242442D8029350D5DE9E4BB8C6
FILE: 11 - Quite Emotional.flac
  Size: 27465202 Hash: 11CC017373C47DA259ED8C4810251243 Accuracy: -m0
  Conclusion: CDDA 100%
  Signature: B7B1B3E97CCD9CCB38D53DA4C6ADE77A4267646D
FILE: 10 - Electric (2010 Digital Remaster).flac
  Size: 35010434 Hash: C7D48E96D413509B5BA701F0AE62B8FC Accuracy: -m0
  Conclusion: CDDA 100%
  Signature: 513A11AA36DF4D93EFA81DB327723E06032B1093
FILE: 09 - Honey Bee.flac
  Size: 36109229 Hash: 047FB63FEF6865D3D05ADBB56C8D2BFD Accuracy: -m0
  Conclusion: CDDA 100%
  Signature: 0025AEDB581391E498A4B7184222D95DF34E1D13
FILE: 08 - Lift Me.flac
  Size: 25350209 Hash: CCD086B4DB168DA48D0898BF1B02A356 Accuracy: -m0
  Conclusion: CDDA 100%
  Signature: 29A9AA2404939E3EBE538846E7BB71087A48A0DA
FILE: 07 - This Old House (2010 Digital Remaster).flac
  Size: 38870169 Hash: 09F7006240CB1E464C7F651F79FA618C Accuracy: -m0
  Conclusion: CDDA 100%
  Signature: ED20C258EEBFA4F6A4097D56F16DA3ECE1C7EFA4
FILE: 06 - Majesty.flac
  Size: 28746297 Hash: 1369D727A66CC380EA0DBD33A7CF6471 Accuracy: -m0
  Conclusion: CDDA 100%
  Signature: 66FC64E1C1A308666608CEC9015FE7DDD0F3F660
FILE: 05 - Hands Up I Love You.flac
  Size: 36132256 Hash: F6C72C60A58C9FE3ED0D4C0CDE3F7F4A Accuracy: -m0
  Conclusion: CDDA 100%
  Signature: 51CD34B8ECC7DB6BF53F6C51FBD0939BEA9E8452
FILE: 04 - Vocal (2010 Digital Remaster).flac
  Size: 45488759 Hash: 5A0F57603F277BDF11D742ED47F06EF4 Accuracy: -m0
  Conclusion: CDDA 100%
  Signature: 61D07223B612E474F249A2BE992BB38795B8B26B
FILE: 03 - Strange Colour Blue (2010 Digital Remaster).flac
  Size: 33538942 Hash: 72E200AC284DA445FAA956B6B4C4693B Accuracy: -m0
  Conclusion: CDDA 100%
  Signature: F6D7A99AFDF9A1EA4766B2FD10A77D05BB59EA30
FILE: 02 - Hold On To You.flac
  Size: 40230334 Hash: 399B1F13379F057643BCFA0372DEA6E6 Accuracy: -m0
  Conclusion: CDDA 100%
  Signature: 3E3BCFD0C568A5486735EF84364EA02D27284733
FILE: 01 - What's On Your Mind.flac
  Size: 28272049 Hash: 78DB5F82F014D9126DA65A7E59364EAE Accuracy: -m0
  Conclusion: CDDA 100%
  Signature: 63CD4FFDC887992715EB58923E527ED9526C6B21
Продолжительность: 01:12:04
FLAC (tracks+.cue)

Описание:
Норвежская рок-группа появилась в 1995 году. Лидеры: Сиверт Хойем (Sivert Hoyem) вокал и Роберт Бурас (Robert Buras) гитара. Madrugada создала свой музыкальный стиль, выразительный и очень эмоциональный, быстро заняв ведущие позиции на скандинавской альтернативной сцене, навела шорох в Европе, а в самой Норвегии стала просто любимчиками.
На пике славы группы неожиданно оборвалась жизнь Robert Buras. Ему было всего 31 год. Три года будущее Madrugada оставалось под вопросом. В 2009-2010 г.г. основные участники состава Madrugada Alex K (Vocal, guitar) и Frode Jacobsen (Bass) организовали группу Kitchie Kitchie Ki Me O и, наконец-то, в 2011 году выпустили долгожданный одноименный альбом Kitchie Kitchie Ki Me O.
Sivert Hoyem занялся сольными проектами.

За рипы спасибо: PREDat0R, CrazyTosser, 4adima, xwave100
#777#777Участники группы:
Sivert Hoyem (vocals)
Frode Jacobsen (bass)
Alex Kloster Jensen (guitar, farewell tour)
Cato Thomassen (guitar, farewell tour)
Erland Dahlen (drums)
Former members
Robert Buras (guitar) †
Jon Lauvland Pettersen (drums)
Simen Vangen (drums)
Mikael Lindqvist (Piano & keyboards)

Discography
Albums
Industrial Silence (1999)
The Nightly Disease (2001)
Grit (2002)
The Deep End (2005)
Live at Tralfamadore (2005)
Madrugada (2008)

Рассвет - вот что в переводе с португальского означает название, вынесенное на щит норвежскими альт-рокерами Madrugada. Это то переходное время суток, которое на английском поэтично называют the blue hour, которое так любят фотографы за призрачный голубой свет и поэты - за размытые, изменчивые очертания мира. Кстати, именно поэт предложил музыкантам такое название - их давний приятель Вольф (Wolf), известный норвежский лирик и музыкант.
Будущий вокалист Madrugada Сиверт Хойем (Sivert Hoyem) родился в Сортлэнде, Норвегия, 22 января 1976 года. Музыкой увлекся рано и более или менее профессионально начал играть и петь в 1992 году. Через год ему уже не терпелось стоять во главе собственной команды, которую он и собрал вместе с приятелями. Называлась она Abbey's Adoption и стала прообразом Madrugada, самой популярной норвежской рок-группы 2000-х.
Правой рукой Сиверта Хойема в коллективе стал начинающий музыкант Роберт Солли Бурас (Robert Solli Buras). Он родился в норвежской провинции 12 августа 1975 года, со школьных лет занимался гитарой и писал песни, поэтому охотно составил компанию своему приятелю Сиверту. Позднее к ним присоединился Фрод Якобсен (Frode Jacobsen), занявший пост бас-гитариста, а место за барабанами досталось Джону Лаувланду Петтерсену (Jon Lauvland Pettersen), хорошему приятелю Хойема.
Все четверо участников слушали самую разную музыку и испытали влияние очень разных групп. Joy Division, Velvet Underground, Ник Кейв и Bad Seeds, The Doors, Primal Scream, The Rolling Stones, U2, REM - значились фаворитами в их фонотеках, наряду с Томом Уэйтсом, Джоном Ли Хукером, Джонни Кэшем и Игги Попом. Такой же пестрый клубок влияний и отголосков можно было отыскать и в музыке Madrugada, мелодичном, внутренне драматичном, эмоциональном сплаве прог-рока и альт-рока.
Хойему, Якобсену, Бурасу и Петтерсену понадобилось два года, чтобы запастись авторским материалом и решиться на переезд в Осло. В столицу Норвегии они прибыли в 1995-м с твердым намерением посвятить себя музыке. Взять шоу-бизнес штурмом не удалось. Но они уверенно, хоть и медленно двигались к своей цели.
Терпение и труд в конце концов победили: в 1998 году, подписав контракт с Virgin Records, группа открыла счет будущим победам - выпустила дебютный мини-альбом Madrugada, за которым последовал еще один мини-релиз New Depression (1999). Теперь дела пошли гораздо быстрее. Первые же релизы обеспечили их достойной фановской поддержкой. А с появлением осенью 1999 года дебютного альбома Industrial Silence стало понятно, что в норвежскую музыку пришла сильная и достойная рок-команда. Альбом легко покорил верхние строчки отечественных хит-парадов, а критики не жалели комплиментов для талантливых новичков, хотя и отмечали, что группа особо ничем не рисковала, выбрав достаточно безопасный и проверенный вариант альт-рока.
В 2000 году их дискография пополнилась еще двумя мини-альбомами: Electric и Higher. А тем временем продолжалось непосредственное общение с фанами во время концертов и туров по Норвегии и ближнему зарубежью. Европа принимала драйвовый, мелодичный рок от Madrugada с энтузиазмом, особенно активную поддержку оказывали им меломаны Германии, Греции, Швейцарии и стран Бенилюкса.
Второй альбом The Nightly Disease, изданный в 2001 году, закрепил за командой статус одной из лучших скандинавских рок-групп, пользующейся широким признанием и популярностью. Хотя эта запись отличалась гораздо более мрачной, даже депрессивной атмосферой, тяжелого впечатления она не производила, наоборот, радовала энергичным, убедительным, плотным саундом, образными текстами (кстати, на английском языке) и гораздо более разноплановыми песнями.
Норвежские фаны принимали диск на ура. Промо-сингл Hands up, I Love You стал в стране хитом #1, а лонг-плей The Nightly Disease намного обогнал Industrial Silence по уровню продаж.
По окончании записи команда попрощалась с барабанщиком Петтерсеном, на его место пришел Симен Ванген (Simen Vangen). В обновленном составе команда записала новый лонг-плей Grit, опубликованный в 2002 году и порадовавший сочетанием мускулистых рок-номеров и мягких лирических баллад под акустическую гитару и струнные. Единственное, чего не хватало записи, по мнению рецензентов, - это целостности и ярких хитов.
Через три года команда взяла реванш - и у критиков, и у рок-фанов, представив великолепную подборку нового материала The Deep End (2005). Над записью трудились уже впятером - вместе с клавишником Микаелом Линдквистом (Mikael Lindqvist). Madrugada представили масштабный, мощный альбом стадионного размаха, отдаленно напоминающий The Stooges и REM начала 90-х, с превосходной лид-гитарой, сильным вокалом, красивыми партиями клавишных. Это был кульминационный момент их карьеры.
Альбом сразу вышел в лидеры продаж и не сдавал позиций несколько месяцев. Тем временем музыканты представляли новую программу в концертном варианте, собирая полные залы и вызывая бурный восторг фанов. В конце 2005 года по следам своих гастрольных подвигов команда выпустила первый живой альбом в своем каталоге Live at Tralfamadore. Тральфамадор (Tralfamadore) - это не название норвежского стадиона или концертного зала. Это выдуманная Куртом Воннегутом, любимым фантастом музыкантов, далекая планета, населенная враждебной землянам цивилизацией.
Популярность этого концертника превзошла самые смелые прогнозы: диск не только дал фору всем конкурентам в чартах, но и всего за месяц стал самым продаваемым альбомом года в Норвегии, обогнав даже предыдущего лидера продаж (диск тех же Madrugada The Deep End) и став дважды платиновым. Неудивительно, что пятеро участников оказались героями следующей церемонии вручения Spellemannprisen, норвежского аналога Grammy. Команда победила сразу в трех номинациях, в том числе Лучший рок-альбом и Лучшая песня.
Радость музыкантов несколько омрачил уход Симона Вангена, которому никак не удавалось совмещать Madrugada с другими проектами (а Ванген изначально отдавал предпочтение джазовой музыке). Тем не менее даже после ухода он продолжал помогать вокалисту Сиверту Хойему в его сайд-проекте The Opposition.
Надо сказать, что все участники группы занимали более чем активную жизненную позицию, работая сразу в нескольких направлениях. Так, Хойем, помимо периодически возникающих проектов (Sivert Hoyem and the Volunteers и другие), записал два сольных альбома. А гитарист Роберт Бурас параллельно с Madrugada собрал группу My Midnight Creeps, с которой подготовил два студийных диска.
Бурас строил массу планов на будущее и активно участвовал в студийных сессиях команды, готовившей новый лонг-плей, когда его жизнь неожиданно оборвалась: в июле 2007 года его нашли мертвым в квартире, которую он снимал в Осло. Ему был всего 31 год.
Несмотря на эту трагическую утрату, музыканты решили продолжить работу, тем более что Бурас успел записать большую часть гитарных партий. Предваренный синглом Look Away Lucifer, пятый студийный альбом Madrugada вышел в январе 2008 года. Открывала его композиция Our Time Won't Live That Long, единственная песня с вокалом Роберта Бураса (хотя он был лид-вокалистом своей группы My Midnight Creeps, в Madrugada петь не решался).
Правила, инструкции, FAQ!!!
Торрент  Добавлен [16 мар 2014, 00:56] Скачать торрент Магнет ссылка
Скачать торрент
[ Размер 32.09 КБ / Просмотров 170 ]

Статус  
 
Размер  3.38 ГБ
Приватный: Нет (DHT включён)
.torrent скачан  0
 


     Отправить личное сообщение
   
Страница 1 из 1
Показать сообщения за:  Поле сортировки  
Начать новую тему Ответить на тему


Сейчас этот форум просматривают: нет зарегистрированных пользователей и гости: 0


Вы не можете начинать темы
Вы не можете отвечать на сообщения
Вы не можете редактировать свои сообщения
Вы не можете удалять свои сообщения
Вы не можете добавлять вложения

Перейти:  
cron