Начать новую тему Ответить на тему
Статистика раздачи
Размер: 951.39 МБ | Добавлен: 16 мар 2014, 00:19 | Скачали: 0
Сидеров: 2  [0 байт/сек]    Личеров: 3  [0 байт/сек]
Пред. тема | След. тема 

Автор
Сообщение

СообщениеДобавлено: 16 мар 2014, 00:19 

Ответить с цитатой 

Machiavel - 3 Альбома (1976-1978) /Reisssue 1994, 2010/

Жанр: Progressive Rock
Cтрана: Belgium
Год: 1976/1977/1978
Аудио кодек: FLAC/APE
Тип рипа: image+.cue
Битрейт аудио: lossless
Продолжительность: 02:32:35
Наличие сканов в раздаче: да

В середине 70-х два бельгийских музыкальных фрика, Роланд ДеГрееф (бас) и Марк Йсайе (ударные, вокал), начали работать под маркой "Moby Dick". С появлением в их компании клавишника Альберта Летешье коллектив взял курс на так называемый "евророк" (стиль, созданный под влиянием "Yes", "Supertramp", "Genesis" и "ELP"), а с приходом гитариста Джека Роскама группа взяла себе имя "Machiavel" в честь итальянского мыслителя Никколо Макиавелли. Первый же альбом породил ряд концертных фаворитов, а пресса и публика приняли новоявленную команду с распростертыми объятиями. Для повышения эффективности группа решила обзавестись отдельным вокалистом, и к микрофону пригласили Марио Гуччио, а тем временем Роскама сменил Жан-Поль Девуа.
С помощью двух следующих альбомов "Machiavel" не только укрепили свой статус, но и приобрели новых поклонников, в чьей вербовке немалую роль сыграла великолепная баллада "Rope Dancer"...
#777
Machiavel
Год: 1976/Reissue 1994
Страна производитель диска: Austria
Label: Spalax Music
Catalog#: 14262
Аудио кодек: FLAC
Битрейт аудио: lossless
Продолжительность - 00:48:33
Источник-релизер: man-erg/gribovar (Avax)
Трек лист:
01. Johan's Brother Told Me (7:32)
02. Cheerlesness (6:46)
03. Cry No More (5:24)
04. When Johan Died, Sirens Were Singing (9:23)
05. I Am (1:27)
06. Leave It Where It Can Stay (8:37)
07. To Be Free (3:03)
08. Don't Remember (3:37)
09. When You Turn Green (2:44)
Код:
Код:
Exact Audio Copy V0.99 prebeta 4 from 23. January 2008

EAC extraction logfile from 30. September 2008, 20:42

Machiavel / Machiavel

Used drive  : BENQ    DVD DD DW1640   Adapter: 3  ID: 0

Read mode               : Secure
Utilize accurate stream : Yes
Defeat audio cache      : Yes
Make use of C2 pointers : No

Read offset correction                      : 618
Overread into Lead-In and Lead-Out          : No
Fill up missing offset samples with silence : Yes
Delete leading and trailing silent blocks   : No
Null samples used in CRC calculations       : Yes
Used interface                              : Installed external ASPI interface

Used output format              : User Defined Encoder
Selected bitrate                : 1024 kBit/s
Quality                         : High
Add ID3 tag                     : No
Command line compressor         : C:\Program Files\Exact Audio Copy\Flac\FLAC.EXE
Additional command line options : --best -V -T "date=%y" -T "genre=%m" %s

TOC of the extracted CD

     Track |   Start  |  Length  | Start sector | End sector
    ---------------------------------------------------------
        1  |  0:00.33 |  7:32.17 |        33    |    33949
        2  |  7:32.50 |  6:46.25 |     33950    |    64424
        3  | 14:19.00 |  5:24.03 |     64425    |    88727
        4  | 19:43.03 |  9:22.50 |     88728    |   130927
        5  | 29:05.53 |  1:26.70 |    130928    |   137447
        6  | 30:32.48 |  8:37.20 |    137448    |   176242
        7  | 39:09.68 |  3:02.62 |    176243    |   189954
        8  | 42:12.55 |  3:36.58 |    189955    |   206212
        9  | 45:49.38 |  2:44.05 |    206213    |   218517

Range status and errors

Selected range

     Filename D:\Rip\Machiavel - Machiavel.wav

     Peak level 98.4 %
     Range quality 100.0 %
     Copy CRC 0411829E
     Copy OK

No errors occurred

AccurateRip summary

Track  1  not present in database
Track  2  not present in database
Track  3  not present in database
Track  4  not present in database
Track  5  not present in database
Track  6  not present in database
Track  7  not present in database
Track  8  not present in database
Track  9  not present in database

None of the tracks are present in the AccurateRip database

End of status report
Код:
Код:
-----------------------

DON'T MODIFY THIS FILE

-----------------------

PERFORMER: auCDtect Task Manager, ver. 1.6.0 RC1 build 1.6.0.1
Copyright (c) 2008-2010 y-soft. All rights reserved
http:/y-soft.org

ANALYZER: auCDtect: CD records authenticity detector, version 0.8.2
Copyright (c) 2004 Oleg Berngardt. All rights reserved.
Copyright (c) 2004 Alexander Djourik. All rights reserved.

FILE: Machiavel - Machiavel.flac
  Size: 292485810 Hash: 3A60DAB2128A1534EA3C4BB82C01B721 Accuracy: -m0
  Conclusion: CDDA 100%
  Signature: A1A2903E823B182BF1BE13A5E7EB7A0522309FD0
#777
Jester
Год: 1977/Reissue 1994
Страна производитель диска: Austria
Label: Spalax Music
Catalog#: 14282
Аудио кодек: FLAC
Битрейт аудио: lossless
Продолжительность - 00:50:21
Источник-релизер: havefun6699
Трек лист:
01. Wisdom (6:01)
02. Sparkling Jaw (7:07)
03. Moments (3:20)
04. In The Reign Of Queen Pollution (6:55)
05. The Jester (5:28)
06. Mr. Street Fair (7:57)
07. Rock, Sea And Tree (9:22)
08. The Birds Are Gone (Bonus Track) (1:51)
09. I'm Nowhere (Bonus Track) (2:22)
Код:
Код:
Exact Audio Copy V0.99 prebeta 4 from 23. January 2008

Отчёт EAC об извлечении, выполненном 18. июля 2011, 8:33

Machiavel / Jester

Дисковод: Optiarc DVD RW AD-7200A   Adapter: 0  ID: 0

Режим чтения                 : Достоверность
Использование точного потока : Да
Отключение кэша аудио        : Да
Использование указателей C2  : Нет

Коррекция смещения при чтении                     : 48
Способность читать области Lead-in и Lead-out     : Нет
Заполнение пропущенных сэмплов тишиной            : Да
Удаление блоков с тишиной в начале и конце        : Нет
При вычислениях CRC использовались нулевые сэмплы : Да
Интерфейс                                         : Встроенный Win32-интерфейс для Win NT/2000

Выходной формат          : Пользовательский кодировщик
Выбранный битрейт        : 768 kBit/s
Качество                 : Высокий
Добавление ID3-тэга      : Нет
Утилита сжатия           : C:\Program Files\Exact Audio Copy\FLAC\FLAC.EXE
Дополнительные параметры : -6 -V -T "ARTIST=%a" -T "TITLE=%t" -T "ALBUM=%g" -T "DATE=%y" -T "TRACKNUMBER=%n" -T "GENRE=%m" -T "COMMENT=%e" %s -o %d

TOC извлечённого CD

     Трек |   Старт  | Длительность | Начальный сектор | Конечный сектор
    ---------------------------------------------------------------------
       1  |  0:00.33 |    6:01.10   |          33      |      27117
       2  |  6:01.43 |    7:06.47   |       27118      |      59114
       3  | 13:08.15 |    3:19.53   |       59115      |      74092
       4  | 16:27.68 |    6:54.52   |       74093      |     105194
       5  | 23:22.45 |    5:27.68   |      105195      |     129787
       6  | 28:50.38 |    7:57.05   |      129788      |     165567
       7  | 36:47.43 |    9:21.52   |      165568      |     207694
       8  | 46:09.20 |    1:50.40   |      207695      |     215984
       9  | 47:59.60 |    2:21.48   |      215985      |     226607

Характеристики диапазона извлечения и сообщения об ошибках

Выбранный диапазон

     Имя файла D:\ \images\Machiavel - Jester\Machiavel - Jester.wav

     Пиковый уровень 98.6 %
     Качество диапазона 99.9 %
     CRC копии B41D658A
     Копирование... OK

Ошибок не произошло

AccurateRip: сводка

Трек  1  нет в базе данных
Трек  2  нет в базе данных
Трек  3  нет в базе данных
Трек  4  нет в базе данных
Трек  5  нет в базе данных
Трек  6  нет в базе данных
Трек  7  нет в базе данных
Трек  8  нет в базе данных
Трек  9  нет в базе данных

Ни одного трека нет в базе AccurateRip

Конец отчёта
Код:
Код:
-----------------------

DON'T MODIFY THIS FILE

-----------------------

PERFORMER: auCDtect Task Manager, ver. 1.6.0 RC1 build 1.6.0.1
Copyright (c) 2008-2010 y-soft. All rights reserved
http:/y-soft.org

ANALYZER: auCDtect: CD records authenticity detector, version 0.8.2
Copyright (c) 2004 Oleg Berngardt. All rights reserved.
Copyright (c) 2004 Alexander Djourik. All rights reserved.

FILE: Machiavel - Jester.flac
  Size: 321892361 Hash: AB6D9E637045FC30D2156EEB6FA179F6 Accuracy: -m0
  Conclusion: CDDA 100%
  Signature: 13A332F350A97403293E9CF65C6D44B0277F80F6
#777
Mechanical Moonbeams
Год: 1978/Reissue 2010
Страна производитель диска: UK
Label: Esoteric Recordings
Catalog#: ECLEC2225
Аудио кодек: APE
Битрейт аудио: lossless
Продолжительность - 00:53:41
Источник-релизер: SORIA/gribovar
Трек лист:
01. Beyond The Silence (6:12)
02. Summon Up Your Strenght (5:07)
03. Rope Dancer (3:40)
04. Rebirth (7:15)
05. After The Crop (7:56)
06. Mary (4:09)
07. The Fifth Season (7:25)
08. Wind Of Life (Bonus Track) (6:14)
09. I'm Not A Loser (Bonus Track) (5:43)
Код:
Код:
Exact Audio Copy V1.0 beta 3 from 29. August 2011

EAC extraction logfile from 21. June 2012, 21:50

Machiavel / Mechanical Moonbeams

Used drive  : Optiarc DVD RW AD-7173A   Adapter: 4  ID: 1

Read mode               : Secure
Utilize accurate stream : Yes
Defeat audio cache      : Yes
Make use of C2 pointers : No

Read offset correction                      : 48
Overread into Lead-In and Lead-Out          : No
Fill up missing offset samples with silence : Yes
Delete leading and trailing silent blocks   : No
Null samples used in CRC calculations       : Yes
Used interface                              : Native Win32 interface for Win NT & 2000

Used output format : Internal WAV Routines
Sample format      : 44.100 Hz; 16 Bit; Stereo

TOC of the extracted CD

     Track |   Start  |  Length  | Start sector | End sector
    ---------------------------------------------------------
        1  |  0:00.03 |  6:11.53 |         3    |    27880
        2  |  6:11.56 |  5:06.50 |     27881    |    50880
        3  | 11:18.31 |  3:40.24 |     50881    |    67404
        4  | 14:58.55 |  7:14.52 |     67405    |   100006
        5  | 22:13.32 |  7:55.61 |    100007    |   135692
        6  | 30:09.18 |  4:09.34 |    135693    |   154401
        7  | 34:18.52 |  7:25.15 |    154402    |   187791
        8  | 41:43.67 |  6:13.65 |    187792    |   215831
        9  | 47:57.57 |  5:43.32 |    215832    |   241588

Range status and errors

Selected range

     Filename E:\+EAC+\Machiavel - Mechanical Moonbeams.wav

     Peak level 99.4 %
     Extraction speed 1.9 X
     Range quality 99.9 %
     Test CRC 2E9A2435
     Copy CRC 2E9A2435
     Copy OK

No errors occurred

End of status report

---- CUETools DB Plugin V2.1.3

[CTDB TOCID: F2G_bj4O6Wm.59vl72NpSYe2Tw8-] disk not present in database, Submit result: discs with pregaps not supported in this protocol version

==== Log checksum 44A99FDA308076C9F9F896DC627BFC67FC17217247DA898A8A05E333DA71F76B ====
Код:
Код:
-----------------------

DON'T MODIFY THIS FILE

-----------------------

PERFORMER: auCDtect Task Manager, ver. 1.6.0 RC1 build 1.6.0.1
Copyright (c) 2008-2010 y-soft. All rights reserved
http:/y-soft.org

ANALYZER: auCDtect: CD records authenticity detector, version 0.8.2
Copyright (c) 2004 Oleg Berngardt. All rights reserved.
Copyright (c) 2004 Alexander Djourik. All rights reserved.

FILE: Machiavel - Mechanical Moonbeams.ape
  Size: 350625148 Hash: 0402DF379E16E105CA338F194D361513 Accuracy: -m0
  Conclusion: CDDA 100%
  Signature: 3CBF02BD032A5A764A83CD2277DB4D057F096C71
Правила, инструкции, FAQ!!!
Торрент  Добавлен [16 мар 2014, 00:19] Скачать торрент Магнет ссылка
Скачать торрент
[ Размер 22.21 КБ / Просмотров 16 ]

Статус  
 
Размер  951.39 МБ
Приватный: Нет (DHT включён)
.torrent скачан  0
 


     Отправить личное сообщение
   
Страница 1 из 1
Показать сообщения за:  Поле сортировки  
Начать новую тему Ответить на тему


Сейчас этот форум просматривают: нет зарегистрированных пользователей и гости: 0


Вы не можете начинать темы
Вы не можете отвечать на сообщения
Вы не можете редактировать свои сообщения
Вы не можете удалять свои сообщения
Вы не можете добавлять вложения

Перейти:  
cron
cron