Начать новую тему Ответить на тему
Статистика раздачи
Размер: 328.88 МБ | Добавлен: 16 мар 2014, 00:14 | Скачали: 0
Сидеров: 1  [0 байт/сек]    Личеров: 25  [0 байт/сек]
Пред. тема | След. тема 

Автор
Сообщение

СообщениеДобавлено: 16 мар 2014, 00:14 

Ответить с цитатой 

Lynn Stokes & Sol Surfers - Terra Nocturne (2008)

Год: 2008
Жанр: Art Rock
Продолжительность: 00:54:45

Кодек: APE
Битрейт: Lossless
Тип рипа: Image + .cue
Коврики: 400 dpi

Трек лист:
1. Sacred Moon's Light
2. Terra Nocturne
3. Where Have You Gone
4. The Crossing
5. Let Go
6. Open Door
7. American Dream
8. Dream Sequence
9. Across the Barrier
Код:
Код:
Exact Audio Copy V0.99 prebeta 5 from 4. May 2009

Отчёт EAC об извлечении, выполненном 23. апреля 2011, 0:18

Lynn Stokes & Sol Surfers / Terra Nocturne

Дисковод: PIONEER DVD-RW  DVR-112D   Adapter: 1  ID: 1

Режим чтения                 : Достоверность
Использование точного потока : Да
Отключение кэша аудио        : Да
Использование указателей C2  : Нет

Коррекция смещения при чтении                     : 48
Способность читать области Lead-in и Lead-out     : Да
Заполнение пропущенных сэмплов тишиной            : Да
Удаление блоков с тишиной в начале и конце        : Нет
При вычислениях CRC использовались нулевые сэмплы : Нет
Интерфейс                                         : Встроенный Win32-интерфейс для Win NT/2000

Выходной формат          : Monkey's Audio (без потерь)
Выбранный битрейт        : Normal Lossless Compression
Качество                 : Высокий
Добавление ID3-тэга      : Нет
Утилита сжатия           : C:\Program Files\Monkey's Audio\MAC.exe

TOC извлечённого CD

     Трек |   Старт  | Длительность | Начальный сектор | Конечный сектор
    ---------------------------------------------------------------------
       1  |  0:00.00 |    7:40.49   |           0      |      34548
       2  |  7:40.49 |    2:27.17   |       34549      |      45590
       3  | 10:07.66 |    6:43.37   |       45591      |      75852
       4  | 16:51.28 |    2:48.61   |       75853      |      88513
       5  | 19:40.14 |    8:06.65   |       88514      |     125028
       6  | 27:47.04 |    5:01.33   |      125029      |     147636
       7  | 32:48.37 |   12:31.58   |      147637      |     204019
       8  | 45:20.20 |    4:52.38   |      204020      |     225957
       9  | 50:12.58 |    3:04.06   |      225958      |     239763

Характеристики диапазона извлечения и сообщения об ошибках

Выбранный диапазон

     Имя файла I:\EAC copy\Lynn Stokes & Sol Surfers_Terra Nocturne_2008\Lynn Stokes & Sol Surfers - Terra Nocturne.wav

     Подозрительная позиция 0:53:16

     Пиковый уровень 100.0 %
     Качество диапазона 99.9 %
     CRC теста 123BD3A7
     CRC копии 0A57EEC7
     Копирование завершено

Были ошибки

AccurateRip: сводка

Трек  1  нет в базе данных
Трек  2  нет в базе данных
Трек  3  нет в базе данных
Трек  4  нет в базе данных
Трек  5  нет в базе данных
Трек  6  нет в базе данных
Трек  7  нет в базе данных
Трек  8  нет в базе данных
Трек  9  нет в базе данных

Ни одного трека нет в базе AccurateRip

Конец отчёта
Код:
Код:
-----------------------

DON'T MODIFY THIS FILE

-----------------------

PERFORMER: auCDtect Task Manager, ver. 1.5.1RC4 build 1.5.1.5
Copyright (c) 2008-2010 y-soft. All rights reserved
http:/y-soft.org

ANALYZER: auCDtect: CD records authenticity detector, version 0.8.2
Copyright (c) 2004 Oleg Berngardt. All rights reserved.
Copyright (c) 2004 Alexander Djourik. All rights reserved.

FILE: Lynn Stokes & Sol Surfers - Terra Nocturne.ape
  Size: 331972972 Hash: 037A0B314D0E2B4F34CC6B78837335B5 Accuracy: -m0
  Conclusion: CDDA 100%
  Signature: 8516AE8635E2A225B67A64122C8FC34C827FBDF7
Правила, инструкции, FAQ!!!
Торрент  Добавлен [16 мар 2014, 00:14] Скачать торрент Магнет ссылка
Скачать торрент
[ Размер 14.21 КБ / Просмотров 45 ]

Статус  
 
Размер  328.88 МБ
Приватный: Нет (DHT включён)
.torrent скачан  0
 


     Отправить личное сообщение
   
Страница 1 из 1
Показать сообщения за:  Поле сортировки  
Начать новую тему Ответить на тему


Сейчас этот форум просматривают: нет зарегистрированных пользователей и гости: 0


Вы не можете начинать темы
Вы не можете отвечать на сообщения
Вы не можете редактировать свои сообщения
Вы не можете удалять свои сообщения
Вы не можете добавлять вложения

Перейти:  
cron