Начать новую тему Ответить на тему
Статистика раздачи
Размер: 325.46 МБ | Добавлен: 16 мар 2014, 00:09 | Скачали: 0
Сидеров: 1  [0 байт/сек]    Личеров: 25  [0 байт/сек]
Пред. тема | След. тема 

Автор
Сообщение

СообщениеДобавлено: 16 мар 2014, 00:09 

Ответить с цитатой 

Lou Gramm - Long Hard Look (1989)

Год: 1989 / 2013
Издание: Rock Candy
Номер по каталогу: CANDY225
Жанр: Rock
Источник : London
Сканы: Есть
Продолжительность: 00:45:27

Кодек: APE
Тип рипа: Image+.cue
Метод сжатия: Lossless
DR9
Треклист:
01. Angel With A Dirty Face (5:16)
02. Just Between You And Me (4:56)
03. Broken Dreams (5:57)
04. True Blue Love (5:01)
05. I'll Come Running (4:06)
06. Hangin' On My Hip (3:39)
07. Warmest Rising Sun (5:11)
08. Day One (3:18)
09. I'll Know When It's Over (4:38)
10. Tin Soldier (3:25)

Код:
Код:
REM GENRE "Classic Rock"
REM DATE 2013
REM DISCID 800AA70A
REM COMMENT "ExactAudioCopy v0.99pb5"
PERFORMER "Lou Gramm"
TITLE "Long Hard Look"
FILE "Lou Gramm - Long Hard Look.ape" WAVE
  TRACK 01 AUDIO
    TITLE "Angel With A Dirty Face"
    PERFORMER "Lou Gramm"
    FLAGS DCP
    INDEX 01 00:00:00
  TRACK 02 AUDIO
    TITLE "Just Between You And Me"
    PERFORMER "Lou Gramm"
    FLAGS DCP
    INDEX 00 05:12:47
    INDEX 01 05:16:22
  TRACK 03 AUDIO
    TITLE "Broken Dreams"
    PERFORMER "Lou Gramm"
    FLAGS DCP
    INDEX 00 10:10:71
    INDEX 01 10:12:21
  TRACK 04 AUDIO
    TITLE "True Blue Love"
    PERFORMER "Lou Gramm"
    FLAGS DCP
    INDEX 00 16:05:71
    INDEX 01 16:09:46
  TRACK 05 AUDIO
    TITLE "I'll Come Running"
    PERFORMER "Lou Gramm"
    FLAGS DCP
    INDEX 00 21:05:74
    INDEX 01 21:10:13
  TRACK 06 AUDIO
    TITLE "Hangin' On My Hip"
    PERFORMER "Lou Gramm"
    FLAGS DCP
    INDEX 00 25:14:35
    INDEX 01 25:16:43
  TRACK 07 AUDIO
    TITLE "Warmest Rising Sun"
    PERFORMER "Lou Gramm"
    FLAGS DCP
    INDEX 00 28:53:26
    INDEX 01 28:55:52
  TRACK 08 AUDIO
    TITLE "Day One"
    PERFORMER "Lou Gramm"
    FLAGS DCP
    INDEX 00 34:05:36
    INDEX 01 34:06:71
  TRACK 09 AUDIO
    TITLE "I'll Know When It's Over"
    PERFORMER "Lou Gramm"
    FLAGS DCP
    INDEX 00 37:24:37
    INDEX 01 37:24:42
  TRACK 10 AUDIO
    TITLE "Tin Soldier"
    PERFORMER "Lou Gramm"
    FLAGS DCP
    INDEX 00 41:56:70
    INDEX 01 42:02:07

Код:
Код:
Exact Audio Copy V0.99 prebeta 5 from 4. May 2009

EAC extraction logfile from 15. December 2013, 17:38

Lou Gramm / Long Hard Look

Used drive  : hp      CDDVDW SH-216BB   Adapter: 0  ID: 0

Read mode               : Secure
Utilize accurate stream : Yes
Defeat audio cache      : Yes
Make use of C2 pointers : No

Read offset correction                      : 6
Overread into Lead-In and Lead-Out          : No
Fill up missing offset samples with silence : Yes
Delete leading and trailing silent blocks   : No
Null samples used in CRC calculations       : Yes
Used interface                              : Native Win32 interface for Win NT & 2000

Used output format              : Monkey's Audio Lossless Encoder
Selected bitrate                : High Lossless Compression
Quality                         : High
Add ID3 tag                     : Yes
Command line compressor         : C:\Program Files (x86)\Monkey's Audio\MAC.exe

TOC of the extracted CD

     Track |   Start  |  Length  | Start sector | End sector
    ---------------------------------------------------------
        1  |  0:00.00 |  5:16.22 |         0    |    23721
        2  |  5:16.22 |  4:55.74 |     23722    |    45920
        3  | 10:12.21 |  5:57.25 |     45921    |    72720
        4  | 16:09.46 |  5:00.42 |     72721    |    95262
        5  | 21:10.13 |  4:06.30 |     95263    |   113742
        6  | 25:16.43 |  3:39.09 |    113743    |   130176
        7  | 28:55.52 |  5:11.19 |    130177    |   153520
        8  | 34:06.71 |  3:17.46 |    153521    |   168341
        9  | 37:24.42 |  4:37.40 |    168342    |   189156
       10  | 42:02.07 |  3:25.20 |    189157    |   204551

Range status and errors

Selected range

     Filename C:\Users\Arthur\Desktop\Lou Gramm - Long Hard Look.wav

     Peak level 99.7 %
     Range quality 100.0 %
     Test CRC C7A97D51
     Copy CRC C7A97D51
     Copy OK

No errors occurred

AccurateRip summary

Track  1  not present in database
Track  2  not present in database
Track  3  not present in database
Track  4  not present in database
Track  5  not present in database
Track  6  not present in database
Track  7  not present in database
Track  8  not present in database
Track  9  not present in database
Track 10  not present in database

None of the tracks are present in the AccurateRip database

End of status report

Код:
Код:
-----------------------

DON'T MODIFY THIS FILE

-----------------------

PERFORMER: auCDtect Task Manager, ver. 1.6.0 RC1 build 1.6.0.1
Copyright (c) 2008-2010 y-soft. All rights reserved
http:/y-soft.org

ANALYZER: auCDtect: CD records authenticity detector, version 0.8.2
Copyright (c) 2004 Oleg Berngardt. All rights reserved.
Copyright (c) 2004 Alexander Djourik. All rights reserved.

FILE: Lou Gramm - Long Hard Look.ape
  Size: 326710812 Hash: ACC8A35A78BDD43A20AB9916F92D9BC1 Accuracy: -m8
  Conclusion: CDDA 99%
  Signature: 3CD481633A7B110A65B9602CC778AEEDFF5AAB69

Правила, инструкции, FAQ!!!
Торрент  Добавлен [16 мар 2014, 00:09] Скачать торрент Магнет ссылка
Скачать торрент
[ Размер 14.14 КБ / Просмотров 41 ]

Статус  
 
Размер  325.46 МБ
Приватный: Нет (DHT включён)
.torrent скачан  0
 


     Отправить личное сообщение
   
Страница 1 из 1
Показать сообщения за:  Поле сортировки  
Начать новую тему Ответить на тему


Сейчас этот форум просматривают: нет зарегистрированных пользователей и гости: 0


Вы не можете начинать темы
Вы не можете отвечать на сообщения
Вы не можете редактировать свои сообщения
Вы не можете удалять свои сообщения
Вы не можете добавлять вложения

Перейти:  
cron