Начать новую тему Ответить на тему
Статистика раздачи
Размер: 899.44 МБ | Добавлен: 01 апр 2019, 19:01 | Скачали: 1
Сидеров: 2  [0 байт/сек]    Личеров: 1  [0 байт/сек]
Пред. тема | След. тема 

Автор
Сообщение

СообщениеДобавлено: 01 апр 2019, 19:01 

Ответить с цитатой 

Logic / The Incredible True Story
Формат записи/Источник записи: [TR24][OF]
Наличие водяных знаков: Нет
Год издания/переиздания диска: 2015
Жанр: Hip-Hop
Издатель (лейбл): Def Jam Recordings, UMG Recordings
Продолжительность: 01:01:36
Наличие сканов в содержимом раздачи: Front
Источник (релизер): prostudiomasters
Контейнер: FLAC (*.flac)
Тип рипа: tracks
Разрядность: 24/44,1
Формат: PCM
Количество каналов: 2.0
Треклист:
01. Contact
02. Fade Away
03. Upgrade
04. White People (Scene)
05. Like Woah
06. Young Jesus (feat. Big Lenbo)
07. Innermission (feat. Lucy Rose)
08. I Am The Greatest
09. The Cude (Scene)
10. Lord Willin'
11. City Of Stars
12. Stainless (feat. Dria)
13. Babel (Scene)
14. Paradise (feat. Jesse Boykins III)
15. Never Been
16. Run It
17. Lucidity (Scene)
18. The Incredible True Story
Код:
foobar2000 1.3.17 / Dynamic Range Meter 1.1.1
log date: 2018-03-09 16:15:17
--------------------------------------------------------------------------------
Analyzed: Logic / The Incredible True Story
--------------------------------------------------------------------------------
DR         Peak         RMS     Duration Track
--------------------------------------------------------------------------------
DR6        0.00 dB    -8.51 dB      2:43 01-Contact
DR6        0.00 dB    -8.15 dB      4:47 02-Fade Away
DR4        0.00 dB    -6.52 dB      2:53 03-Upgrade
DR10       0.00 dB   -10.55 dB      1:39 04-White People (Scene)
DR5        0.00 dB    -6.36 dB      3:53 05-Like Woah
DR4        0.00 dB    -5.45 dB      3:32 06-Young Jesus (feat. Big Lenbo)
DR5        0.00 dB    -6.30 dB      4:00 07-Innermission (feat. Lucy Rose)
DR6        0.00 dB    -8.29 dB      3:23 08-I Am The Greatest
DR11      -1.74 dB   -14.56 dB      0:27 09-The Cube (Scene)
DR5        0.00 dB    -6.75 dB      3:29 10-Lord Willin'
DR5        0.00 dB    -6.82 dB      6:17 11-City Of Stars
DR5        0.00 dB    -7.04 dB      3:20 12-Stainless (feat. Dria)
DR11       0.00 dB   -11.67 dB      1:11 13-Babel (Scene)
DR6        0.00 dB    -7.47 dB      4:42 14-Paradise (feat. Jesse Boykins III)
DR7        0.00 dB    -9.43 dB      4:07 15-Never Been
DR6        0.00 dB    -7.91 dB      3:21 16-Run It
DR9        0.00 dB   -11.06 dB      0:56 17-Lucidity (Scene)
DR6        0.00 dB    -8.72 dB      6:57 18-The Incredible True Story
--------------------------------------------------------------------------------
Number of tracks:  18
Official DR value: DR7
Samplerate:        44100 Hz
Channels:          2
Bits per sample:   24
Bitrate:           1539 kbps
Codec:             FLAC
================================================================================
The Incredible True Story is the second studio album by American rapper Logic. It was released on November 13, 2015, by Visionary Music Group and Def Jam Recordings. Recording sessions took place upon the completion and the release of Under Pressure, from late 2014 to early 2015. The album saw extensive production by Logic along with a variety of contributors, including 6ix, Stefan Ponce, Sir Dylan, Syk Sense, OZ and DJ Dahi. The album also saw limited appearances from guest vocalists, with Big Lenbo, Lucy Rose, Dria and Jesse Boykins III being credited with guest appearances. It was supported by three singles: "Young Jesus", "Like Woah" and "Fade Away". Each song was released to coincide with a three-week delay.
The Incredible True Story has been characterized as an experimental musical work, with particular attention drawn to the running storyline detailed within the album. It incorporates elements inspired by filmmaker Quentin Tarantino, including its non-linear storytelling, the satirical subject matter discussed between the characters, and its introduction of 20th century score pieces typically seen deployed by Tarantino. Logic translated the storyline sonically by introducing scenes within the album, as well as offcuts within songs to help establish plot and context. Initial promotion of The Incredible True Story included worldwide video projections of the album's music and live television performances, as well as The Incredible World Tour.
The Incredible True Story received generally positive critical reception from critics. It debuted at number three on the US Billboard 200, selling 118,000 copies in its first week.
https://ru.wikipedia.org/wiki/Logic_(рэпер)
https://en.wikipedia.org/wiki/Logic_(musician)

Раздаю до первых 5-ти скачавших, на раздачи не возвращаюсь...

Правила, инструкции, FAQ!!!
Торрент  Добавлен [01 апр 2019, 19:01] Скачать торрент Магнет ссылка
Скачать торрент
[ Размер 19.12 КБ / Просмотров 19 ]

Статус
Проверен 
 
Размер  899.44 МБ
Приватный: Нет (DHT включён)
.torrent скачан  1
 


     Отправить личное сообщение
   
Страница 1 из 1
Показать сообщения за:  Поле сортировки  
Начать новую тему Ответить на тему


Сейчас этот форум просматривают: нет зарегистрированных пользователей и гости: 0


Вы не можете начинать темы
Вы не можете отвечать на сообщения
Вы не можете редактировать свои сообщения
Вы не можете удалять свои сообщения
Вы не можете добавлять вложения

Перейти:  
cron