Начать новую тему Ответить на тему
Статистика раздачи
Размер: 697.41 МБ | Добавлен: 02 май 2019, 13:55 | Скачали: 5
Сидеров: 8  [0 байт/сек]    Личеров: 2  [0 байт/сек]
Пред. тема | След. тема 

Автор
Сообщение

СообщениеДобавлено: 02 май 2019, 13:55 

Ответить с цитатой 

Living Voices / Angel of the Morning
Формат записи/Источник записи: [TR24][OF]
Наличие водяных знаков: Нет
Год издания/переиздания диска: 1969/2019
Жанр: Pop, Easy Listening, Oldies
Издатель (лейбл): RCA - Legacy
Наличие сканов в содержимом раздачи: Только обложка альбома
Треклист:
1. Angel of the Morning (3:25)
2. Till (2:54)
3. Thosw Were the Days (3:45)
4. Les Bicyclettes de Belsize (2:53)
5. Hey Jude (3:12)
6. For Once in My Life (2:41)
7. Promises Are for Keepin' (2:40)
8. Hold Me Tight (2:39)
9. Yesterday I Heard the Rain (3:11)
10. Battle Hymn of the Republic (2:42)
Контейнер: FLAC (*.flac)
Тип рипа: tracks
Разрядность: 24/96
Формат: WAV (flac.ape.wv)
Количество каналов: 2.0
Код:
foobar2000 1.3.3 (cdpos.biz) / Dynamic Range Meter 1.1.1
--------------------------------------------------------------------------------
Analyzed: Living Voices / Angel of the Morning
--------------------------------------------------------------------------------
DR         Peak         RMS     Duration Track
--------------------------------------------------------------------------------
DR9       -0.01 dB   -12.22 dB      3:27 1-Angel of the Morning
DR9       -0.02 dB   -10.96 dB      3:00 2-Till
DR9       -0.02 dB   -12.15 dB      3:53 3-Those Were the Days
DR9       -0.02 dB   -10.95 dB      2:58 4-Les Bicyclettes de Belsize
DR8       -0.01 dB   -10.63 dB      3:19 5-Hey Jude
DR10      -0.02 dB   -11.10 dB      2:43 6-For Once In My Life
DR10      -0.02 dB   -12.37 dB      2:44 7-Promises Are for Keepin'
DR10      -0.02 dB   -11.97 dB      2:41 8-Hold Me Tight
DR9       -0.02 dB   -12.46 dB      3:15 9-Yesterday I Heard the Rain
DR9       -0.01 dB   -12.27 dB      2:49 10-Battle Hymn of the Republic
--------------------------------------------------------------------------------
Number of tracks:  10
Official DR value: DR9
Samplerate:        96000 Hz
Channels:          2
Bits per sample:   24
Bitrate:           3153 kbps
Codec:             FLAC
================================================================================
Источник (релизер): https://www.qobuz.com/gb-en/album/angel-of-the-morning-living-voices/ecz2q2ms2uwvc
Правила, инструкции, FAQ!!!
Торрент  Добавлен [02 май 2019, 13:55] Скачать торрент Магнет ссылка
Скачать торрент
[ Размер 14.74 КБ / Просмотров 47 ]

Статус
Проверен 
 
Размер  697.41 МБ
Приватный: Нет (DHT включён)
.torrent скачан  5
 


     Отправить личное сообщение
   
Страница 1 из 1
Показать сообщения за:  Поле сортировки  
Начать новую тему Ответить на тему


Сейчас этот форум просматривают: нет зарегистрированных пользователей и гости: 0


Вы не можете начинать темы
Вы не можете отвечать на сообщения
Вы не можете редактировать свои сообщения
Вы не можете удалять свои сообщения
Вы не можете добавлять вложения

Перейти:  
cron
cron