Начать новую тему Ответить на тему
Статистика раздачи
Размер: 245.79 МБ | Добавлен: 16 мар 2014, 00:10 | Скачали: 0
Сидеров: 1  [0 байт/сек]    Личеров: 0  [0 байт/сек]
Пред. тема | След. тема 

Автор
Сообщение

СообщениеДобавлено: 16 мар 2014, 00:10 

Ответить с цитатой 

Lincoln Street Exit - Drive It (1970) Released 1994

Жанр: Rock/Psychedelic Rock
Год: 1970
Страна: US
Released: 1994/Germany
Label: TRC Records
Catalog#: TRC 044
Аудио кодек: FLAC
Тип рипа: tracks+cue
Битрейт аудио: lossless
Продолжительность: 00:39:34
Источник-релизер: IgorIgor8084
Scans: в раздаче
Треклист:
01. Man Machine (3:58)
02. Dirty Mother Blues (6:50)
03. Got You Babe (2:58)
04. Teacher Teacher (2:55)
05. Soulful Drifter (2:22)
06. Time Has Come Gonna Die (4:13)
07. Going Back Home (3:07)
08. Straight Shootin' Man (3:06)
09. Phantom Child (4:18)
Bonus Tracks
10. The Bummer (2:25)
11. Sunny Sunday Dream (3:22)


Единственный лонгплей группы из Альбукерке (штат Нью-Мексико), основанной в июне 1964 года. В оригинальный состав вошли Paul Chapman, барабанщик Lee Herres, певец и гитарист Michael Martin и басист Mac Suazo. Это был один из немногих в середине 1960-х годов коллективов, где все четыре участника были индейцами из племени сиу. Первые шесть лет группа активно гастролирует и записывает синглы. Вскоре музыканты остаются втроём, умирает Paul Chapman. Альбом “Drive It!” они записывают с гитаристом R.C. Gariss. Альбом должен прийтись по вкусу тем, кто любит хард и психоделик. Здесь уже безусловные приметы хард-рока на основе ритм-энд-блюза, но еще очень силен дух психоделии, то, что называют “psychedelic influence”.

Credits
- Arranged By – Lincoln St. Exit
- Bass – Mac Suazo
- Drums, Percussion – Lee Herres
- Engineer – Tim Ramsey
- Guitar – R.C. Gariss
- Lead Vocals, Lead Guitar – Michael Martin
- Producer – Bob Shad
Код:
Код:
Exact Audio Copy V1.0 beta 3 from 29. August 2011

Отчёт EAC об извлечении, выполненном 27. мая 2012, 9:11

Lincoln Street Exit / Drive It

Дисковод: Optiarc DVD RW AD-7260S   Adapter: 3  ID: 0

Режим чтения                 : Достоверность
Использование точного потока : Да
Отключение кэша аудио        : Да
Использование указателей C2  : Нет

Коррекция смещения при чтении                     : 48
Способность читать области Lead-in и Lead-out     : Нет
Заполнение пропущенных сэмплов тишиной            : Да
Удаление блоков с тишиной в начале и конце        : Нет
При вычислениях CRC использовались нулевые сэмплы : Да
Интерфейс                                         : Встроенный Win32-интерфейс для Win NT/2000
Обработка зазоров                                 : Добавлено к предыдущему треку

Выходной формат          : Пользовательский кодировщик
Выбранный битрейт        : 896 kBit/s
Качество                 : Высокий
Добавление ID3-тега      : Да
Утилита сжатия           : C:\Program Files\Exact Audio Copy\Flac\flac.exe
Дополнительные параметры : -V -8 -T "Genre=%genre%" -T "Artist=%artist%" -T "Title=%title%" -T "Album=%albumtitle%" -T "Date=%year%" -T "Tracknumber=%tracknr%" -T "Comment=%comment%" %source%

TOC извлечённого CD

     Трек |   Старт  | Длительность | Начальный сектор | Конечный сектор
    ---------------------------------------------------------------------
       1  |  0:00.00 |    3:58.30   |           0      |      17879
       2  |  3:58.30 |    6:49.52   |       17880      |      48606
       3  | 10:48.07 |    2:57.38   |       48607      |      61919
       4  | 13:45.45 |    2:55.30   |       61920      |      75074
       5  | 16:41.00 |    2:21.57   |       75075      |      85706
       6  | 19:02.57 |    4:12.60   |       85707      |     104666
       7  | 23:15.42 |    3:06.45   |      104667      |     118661
       8  | 26:22.12 |    3:05.50   |      118662      |     132586
       9  | 29:27.62 |    4:18.13   |      132587      |     151949
      10  | 33:46.00 |    2:25.10   |      151950      |     162834
      11  | 36:11.10 |    3:22.12   |      162835      |     177996

Трек  1

     Имя файла M:\Раздачи\Lincoln Street Exit - Drive It-1970\01 Man Machine.wav

     Длина предзазора  0:00:02.00

     Пиковый уровень 98.3 %
     Скорость извлечения 2.2 X
     Качество трека 99.9 %
     CRC теста 2814D650
     CRC копии 2814D650
     Трек не обнаружен в базе AccurateRip
     Копирование... OK

Трек  2

     Имя файла M:\Раздачи\Lincoln Street Exit - Drive It-1970\02 Dirty Mother Blues.wav

     Пиковый уровень 98.3 %
     Скорость извлечения 2.8 X
     Качество трека 99.9 %
     CRC теста 7905A78F
     CRC копии 7905A78F
     Трек не обнаружен в базе AccurateRip
     Копирование... OK

Трек  3

     Имя файла M:\Раздачи\Lincoln Street Exit - Drive It-1970\03 Got You Babe.wav

     Пиковый уровень 98.2 %
     Скорость извлечения 2.9 X
     Качество трека 100.0 %
     CRC теста D1340C1D
     CRC копии D1340C1D
     Трек не обнаружен в базе AccurateRip
     Копирование... OK

Трек  4

     Имя файла M:\Раздачи\Lincoln Street Exit - Drive It-1970\04 Teacher Teacher.wav

     Пиковый уровень 98.0 %
     Скорость извлечения 3.1 X
     Качество трека 100.0 %
     CRC теста 6BEC0C54
     CRC копии 6BEC0C54
     Трек не обнаружен в базе AccurateRip
     Копирование... OK

Трек  5

     Имя файла M:\Раздачи\Lincoln Street Exit - Drive It-1970\05 Soulful Drifter.wav

     Пиковый уровень 98.4 %
     Скорость извлечения 2.5 X
     Качество трека 99.9 %
     CRC теста 5650E4BA
     CRC копии 5650E4BA
     Трек не обнаружен в базе AccurateRip
     Копирование... OK

Трек  6

     Имя файла M:\Раздачи\Lincoln Street Exit - Drive It-1970\06 Time Has Come Gonna Die.wav

     Пиковый уровень 98.0 %
     Скорость извлечения 3.5 X
     Качество трека 100.0 %
     CRC теста 5CB817A4
     CRC копии 5CB817A4
     Трек не обнаружен в базе AccurateRip
     Копирование... OK

Трек  7

     Имя файла M:\Раздачи\Lincoln Street Exit - Drive It-1970\07 Going Back Home.wav

     Пиковый уровень 98.0 %
     Скорость извлечения 3.5 X
     Качество трека 100.0 %
     CRC теста 5978B009
     CRC копии 5978B009
     Трек не обнаружен в базе AccurateRip
     Копирование... OK

Трек  8

     Имя файла M:\Раздачи\Lincoln Street Exit - Drive It-1970\08 Straight Shootin' Man.wav

     Пиковый уровень 98.0 %
     Скорость извлечения 3.7 X
     Качество трека 100.0 %
     CRC теста 264253B1
     CRC копии 264253B1
     Трек не обнаружен в базе AccurateRip
     Копирование... OK

Трек  9

     Имя файла M:\Раздачи\Lincoln Street Exit - Drive It-1970\09 Phantom Child.wav

     Пиковый уровень 98.0 %
     Скорость извлечения 3.5 X
     Качество трека 99.9 %
     CRC теста 083261DA
     CRC копии 083261DA
     Трек не обнаружен в базе AccurateRip
     Копирование... OK

Трек 10

     Имя файла M:\Раздачи\Lincoln Street Exit - Drive It-1970\10 The Bummer.wav

     Пиковый уровень 98.0 %
     Скорость извлечения 3.7 X
     Качество трека 100.0 %
     CRC теста 62B046D7
     CRC копии 62B046D7
     Трек не обнаружен в базе AccurateRip
     Копирование... OK

Трек 11

     Имя файла M:\Раздачи\Lincoln Street Exit - Drive It-1970\11 Sunny Sunday Dream.wav

     Пиковый уровень 98.0 %
     Скорость извлечения 3.5 X
     Качество трека 99.9 %
     CRC теста CEB4FAB6
     CRC копии CEB4FAB6
     Трек не обнаружен в базе AccurateRip
     Копирование... OK

Ни одного трека нет в базе AccurateRip

Ошибок не произошло

Конец отчёта
Код:
Код:
-----------------------

DON'T MODIFY THIS FILE

-----------------------

PERFORMER: auCDtect Task Manager, ver. 1.6.0 RC1 build 1.6.0.1
Copyright (c) 2008-2010 y-soft. All rights reserved
http:/y-soft.org

ANALYZER: auCDtect: CD records authenticity detector, version 0.8.2
Copyright (c) 2004 Oleg Berngardt. All rights reserved.
Copyright (c) 2004 Alexander Djourik. All rights reserved.

FILE: 11 Sunny Sunday Dream.flac
  Size: 22488488 Hash: FDD0B658D638A0381C8004AD3EC98896 Accuracy: -m0
  Conclusion: CDDA 100%
  Signature: A375ECE03847668F747E573547705BD2789A8634
FILE: 10 The Bummer.flac
  Size: 17904732 Hash: 827C5F9E37F7092C6F88AD368359BE84 Accuracy: -m0
  Conclusion: CDDA 100%
  Signature: 8EB0F5300C58B292C1ECF55D2006C0607FAE395C
FILE: 09 Phantom Child.flac
  Size: 28010887 Hash: BFF8309D13040BEC4894BA6C3376F801 Accuracy: -m0
  Conclusion: CDDA 100%
  Signature: BC647E5870845B8D74801AD5734F6371D8A630C1
FILE: 08 Straight Shootin' Man.flac
  Size: 18906091 Hash: E19D09D4AE8C531951D2F03C24CD3D40 Accuracy: -m0
  Conclusion: CDDA 100%
  Signature: F56FBA00A37FD280FBEA48CC84D3AD51176AF776
FILE: 07 Going Back Home.flac
  Size: 18519652 Hash: A248A7C4A6A002C91B3A1134BE7F1945 Accuracy: -m0
  Conclusion: CDDA 99%
  Signature: 97523D48FBE4F8F97569700703F6915C3E5C86BE
FILE: 06 Time Has Come Gonna Die.flac
  Size: 25747250 Hash: C57779C2612603DF27D8EC1707EA99AE Accuracy: -m0
  Conclusion: CDDA 100%
  Signature: 9063CF4988AE0CDC8945C0A259612F719F289542
FILE: 05 Soulful Drifter.flac
  Size: 15124217 Hash: 1E312D383B3FE56580F0FA364EEF2955 Accuracy: -m0
  Conclusion: CDDA 100%
  Signature: D023BE47F56DB925805CBF1A585523E6D397F89E
FILE: 04 Teacher Teacher.flac
  Size: 18574511 Hash: 7CC0763AB16DB7F3A6DFFC8FBC9DD219 Accuracy: -m0
  Conclusion: CDDA 100%
  Signature: D4FD630188D5A36F83F7270034CA49917657B73F
FILE: 03 Got You Babe.flac
  Size: 18690360 Hash: 43C6A1A38A332C5291E4F2CC5F50CC4E Accuracy: -m0
  Conclusion: CDDA 100%
  Signature: E144A4F72677792A154878F2779A932E4113881C
FILE: 02 Dirty Mother Blues.flac
  Size: 41962993 Hash: DF5382AE917B43ABC646D87B6ED42391 Accuracy: -m0
  Conclusion: CDDA 100%
  Signature: E5AE7B038F8952941AC50DCEF1693264ACFBD591
FILE: 01 Man Machine.flac
  Size: 26197409 Hash: 2E868C17936882A94F281CFBDEBB839E Accuracy: -m0
  Conclusion: CDDA 100%
  Signature: A462BBEF4B15BF451A6099F40AB7B7E4C65E9014
Правила, инструкции, FAQ!!!
Торрент  Добавлен [16 мар 2014, 00:10] Скачать торрент Магнет ссылка
Скачать торрент
[ Размер 20.85 КБ / Просмотров 23 ]

Статус  
 
Размер  245.79 МБ
Приватный: Нет (DHT включён)
.torrent скачан  0
 


     Отправить личное сообщение
   
Страница 1 из 1
Показать сообщения за:  Поле сортировки  
Начать новую тему Ответить на тему


Сейчас этот форум просматривают: нет зарегистрированных пользователей и гости: 0


Вы не можете начинать темы
Вы не можете отвечать на сообщения
Вы не можете редактировать свои сообщения
Вы не можете удалять свои сообщения
Вы не можете добавлять вложения

Перейти:  
cron
cron