Начать новую тему Ответить на тему
Статистика раздачи
Размер: 693.54 МБ | Добавлен: 14 мар 2020, 10:59 | Скачали: 0
Сидеров: 12  [0 байт/сек]    Личеров: 4  [0 байт/сек]
Пред. тема | След. тема 

Автор
Сообщение

СообщениеДобавлено: 14 мар 2020, 10:59 

Ответить с цитатой 


Leslie Uggams


Leslie



• Формат записи | Источник записи: [TR24][OF]
• Наличие водяных знаков: Нет
• Год издания релиза: 1969
• Жанр: Pop
• Лейбл: Columbia - Legacy
• Продолжительность: 00:31:20
• Источник: internet
• WEB релиз: ссылка
• Контейнер: FLAC (*.flac)
• Тип рипа: tracks
• Разрядность: 24/96
• Формат: WAV (flac.ape.wv)
• Количество каналов: 2.0
• Наличие сканов: front
Tracklist:
01 - More (00:02:26)
02 - Tenderly (00:04:09)
03 - He's Got The Whole World In His Hands (00:03:41)
04 - Summertime (00:02:42)
05 - Lonesome Road (00:02:53)
06 - Trolley Song (00:03:14)
07 - Moonlight In Vermont (00:03:24)
08 - Am I Blue (00:02:22)
09 - Someone To Watch Over Me (00:03:17)
10 - And I Love Her (00:03:07)



Код:
foobar2000 1.4.2 / Замер динамического диапазона (DR) 1.1.1
Дата отчёта:  2020-03-13 10:04:12
--------------------------------------------------------------------------------
Анализ:   Leslie Uggams / Leslie
--------------------------------------------------------------------------------
DR         Пики         RMS           Продолжительность трека
--------------------------------------------------------------------------------
DR9       -0.46 дБ   -11.82 дБ      2:26 01-More
DR10      -0.93 дБ   -13.05 дБ      4:10 02-Tenderly
DR10      -0.46 дБ   -13.70 дБ      3:41 03-He's Got The Whole World In His Hands
DR10      -0.48 дБ   -13.40 дБ      2:43 04-Summertime
DR10      -0.46 дБ   -13.08 дБ      2:54 05-Lonesome Road
DR10      -0.46 дБ   -14.07 дБ      3:14 06-Trolley Song
DR10      -0.77 дБ   -13.70 дБ      3:24 07-Moonlight In Vermont
DR9       -1.28 дБ   -13.21 дБ      2:23 08-Am I Blue
DR9       -0.97 дБ   -13.61 дБ      3:17 09-Someone To Watch Over Me
DR10      -1.32 дБ   -14.81 дБ      3:08 10-And I Love Her
--------------------------------------------------------------------------------
Количество треков: 10
Реальные значения DR: DR10
Частота:   96000 Гц
Каналов:   2
Разрядность:   24
Битрейт:   3042 кбит/с
Кодек:   FLAC
================================================================================

Правила, инструкции, FAQ!!!
Торрент  Добавлен [14 мар 2020, 10:59] Скачать торрент Магнет ссылка
Скачать торрент
[ Размер 14.58 КБ / Просмотров 8 ]

Статус
Проверен 
 
Размер  693.54 МБ
Приватный: Нет (DHT включён)
.torrent скачан  0
 


     Отправить личное сообщение
   
Страница 1 из 1
Показать сообщения за:  Поле сортировки  
Начать новую тему Ответить на тему


Сейчас этот форум просматривают: нет зарегистрированных пользователей и гости: 0


Вы не можете начинать темы
Вы не можете отвечать на сообщения
Вы не можете редактировать свои сообщения
Вы не можете удалять свои сообщения
Вы не можете добавлять вложения

Перейти:  
cron
cron