Начать новую тему Ответить на тему
Статистика раздачи
Размер: 381.72 МБ | Добавлен: 16 мар 2014, 00:37 | Скачали: 0
Сидеров: 0  [0 байт/сек]    Личеров: 1  [0 байт/сек]
Пред. тема | След. тема 

Автор
Сообщение

СообщениеДобавлено: 16 мар 2014, 00:37 

Ответить с цитатой 

Kutless
- The Worship Collection


Год выпуска: 2013
Жанр: Alternative Rock | Christian Rock
Продолжительность: 00:52:56
Тип издания: Альбом
Страна: США



Треклист:

01. Draw Me Close
02. All Who Are Thirsty
03. Give Us Clean Hands
04. It is Well
05. We Fall Down
06. Sea of Faces
07. What Faith Can Do
08. Beautiful the Blood
09. Strong Tower
10. Better is One Day
11. Amazed
12. God of Wonders
13. Take Me In
14. Everything I Need


Код:
Код:
Exact Audio Copy V1.0 beta 3 from 29. August 2011

EAC extraction logfile from 10. May 2013, 17:44

Kutless / The Worship Collection

Used drive  : TSSTcorpCDDVDW TS-L633F   Adapter: 0  ID: 1

Read mode               : Secure
Utilize accurate stream : Yes
Defeat audio cache      : Yes
Make use of C2 pointers : No

Read offset correction                      : 6
Overread into Lead-In and Lead-Out          : No
Fill up missing offset samples with silence : Yes
Delete leading and trailing silent blocks   : No
Null samples used in CRC calculations       : Yes
Used interface                              : Native Win32 interface for Win NT & 2000
Gap handling                                : Appended to previous track

Used output format              : User Defined Encoder
Selected bitrate                : 1024 kBit/s
Quality                         : High
Add ID3 tag                     : No
Command line compressor         : C:\Program Files (x86)\FLAC\flac.exe
Additional command line options : -8 -V -T "ARTIST=%artist%" -T "TITLE=%title%" -T "ALBUM=%albumtitle%" -T "DATE=%year%" -T "TRACKNUMBER=%tracknr%" -T "GENRE=%genre%" -T "PERFORMER=%albuminterpret%" -T "COMPOSER=%composer%" %haslyrics%--tag-from-file=LYRICS="%lyricsfile%"%haslyrics% -T "ALBUMARTIST=%albumartist%" -T "DISCNUMBER=%cdnumber%" -T "TOTALDISCS=%totalcds%" -T "TOTALTRACKS=%numtracks%" -T "COMMENT=%comment%" %source% -o %dest%

TOC of the extracted CD

     Track |   Start  |  Length  | Start sector | End sector
    ---------------------------------------------------------
        1  |  0:00.00 |  3:47.59 |         0    |    17083
        2  |  3:47.59 |  4:13.73 |     17084    |    36131
        3  |  8:01.57 |  4:18.40 |     36132    |    55521
        4  | 12:20.22 |  3:19.73 |     55522    |    70519
        5  | 15:40.20 |  3:09.00 |     70520    |    84694
        6  | 18:49.20 |  3:35.08 |     84695    |   100827
        7  | 22:24.28 |  3:53.42 |    100828    |   118344
        8  | 26:17.70 |  3:40.33 |    118345    |   134877
        9  | 29:58.28 |  3:58.71 |    134878    |   152798
       10  | 33:57.24 |  4:50.59 |    152799    |   174607
       11  | 38:48.08 |  3:42.09 |    174608    |   191266
       12  | 42:30.17 |  3:06.40 |    191267    |   205256
       13  | 45:36.57 |  4:16.67 |    205257    |   224523
       14  | 49:53.49 |  3:02.39 |    224524    |   238212

Track  1

     Filename C:\EAC Rips\Kutless - The Worship Collection (2013) [FLAC]\01 - Draw Me Close.wav

     Pre-gap length  0:00:02.00

     Peak level 94.2 %
     Extraction speed 2.5 X
     Track quality 100.0 %
     Test CRC 89CE239E
     Copy CRC 89CE239E
     Track not present in AccurateRip database
     Copy OK

Track  2

     Filename C:\EAC Rips\Kutless - The Worship Collection (2013) [FLAC]\02 - All Who Are Thirsty.wav

     Peak level 92.3 %
     Extraction speed 2.2 X
     Track quality 99.9 %
     Test CRC EDE71F82
     Copy CRC EDE71F82
     Track not present in AccurateRip database
     Copy OK

Track  3

     Filename C:\EAC Rips\Kutless - The Worship Collection (2013) [FLAC]\03 - Give Us Clean Hands.wav

     Peak level 94.2 %
     Extraction speed 3.0 X
     Track quality 100.0 %
     Test CRC FBFD7BC2
     Copy CRC FBFD7BC2
     Track not present in AccurateRip database
     Copy OK

Track  4

     Filename C:\EAC Rips\Kutless - The Worship Collection (2013) [FLAC]\04 - It is Well.wav

     Peak level 94.2 %
     Extraction speed 3.0 X
     Track quality 100.0 %
     Test CRC 9289EF12
     Copy CRC 9289EF12
     Track not present in AccurateRip database
     Copy OK

Track  5

     Filename C:\EAC Rips\Kutless - The Worship Collection (2013) [FLAC]\05 - We Fall Down.wav

     Peak level 94.2 %
     Extraction speed 3.1 X
     Track quality 100.0 %
     Test CRC 7EA84356
     Copy CRC 7EA84356
     Track not present in AccurateRip database
     Copy OK

Track  6

     Filename C:\EAC Rips\Kutless - The Worship Collection (2013) [FLAC]\06 - Sea of Faces.wav

     Peak level 94.2 %
     Extraction speed 2.6 X
     Track quality 99.9 %
     Test CRC 2B8D7BBD
     Copy CRC 2B8D7BBD
     Track not present in AccurateRip database
     Copy OK

Track  7

     Filename C:\EAC Rips\Kutless - The Worship Collection (2013) [FLAC]\07 - What Faith Can Do.wav

     Peak level 94.2 %
     Extraction speed 3.6 X
     Track quality 100.0 %
     Test CRC 7B321E4A
     Copy CRC 7B321E4A
     Track not present in AccurateRip database
     Copy OK

Track  8

     Filename C:\EAC Rips\Kutless - The Worship Collection (2013) [FLAC]\08 - Beautiful the Blood.wav

     Peak level 94.2 %
     Extraction speed 2.9 X
     Track quality 99.9 %
     Test CRC 7ACA1312
     Copy CRC 7ACA1312
     Track not present in AccurateRip database
     Copy OK

Track  9

     Filename C:\EAC Rips\Kutless - The Worship Collection (2013) [FLAC]\09 - Strong Tower.wav

     Peak level 94.2 %
     Extraction speed 3.9 X
     Track quality 100.0 %
     Test CRC 1F0A19B3
     Copy CRC 1F0A19B3
     Track not present in AccurateRip database
     Copy OK

Track 10

     Filename C:\EAC Rips\Kutless - The Worship Collection (2013) [FLAC]\10 - Better is One Day.wav

     Peak level 94.2 %
     Extraction speed 4.1 X
     Track quality 100.0 %
     Test CRC 85307AD2
     Copy CRC 85307AD2
     Track not present in AccurateRip database
     Copy OK

Track 11

     Filename C:\EAC Rips\Kutless - The Worship Collection (2013) [FLAC]\11 - Amazed.wav

     Peak level 94.2 %
     Extraction speed 3.2 X
     Track quality 99.9 %
     Test CRC 78B5CD11
     Copy CRC 78B5CD11
     Track not present in AccurateRip database
     Copy OK

Track 12

     Filename C:\EAC Rips\Kutless - The Worship Collection (2013) [FLAC]\12 - God of Wonders.wav

     Peak level 94.2 %
     Extraction speed 3.1 X
     Track quality 99.9 %
     Test CRC 51AA5DC7
     Copy CRC 51AA5DC7
     Track not present in AccurateRip database
     Copy OK

Track 13

     Filename C:\EAC Rips\Kutless - The Worship Collection (2013) [FLAC]\13 - Take Me In.wav

     Peak level 94.2 %
     Extraction speed 4.4 X
     Track quality 100.0 %
     Test CRC 51396744
     Copy CRC 51396744
     Track not present in AccurateRip database
     Copy OK

Track 14

     Filename C:\EAC Rips\Kutless - The Worship Collection (2013) [FLAC]\14 - Everything I Need.wav

     Peak level 94.2 %
     Extraction speed 4.2 X
     Track quality 100.0 %
     Test CRC 68761D14
     Copy CRC 68761D14
     Track not present in AccurateRip database
     Copy OK

None of the tracks are present in the AccurateRip database

No errors occurred

End of status report

---- CUETools DB Plugin V2.1.3

[CTDB TOCID: TXY0HE6PtcyfNCgJB5p1UnGbrSA-] disk not present in database, Submit result: TXY0HE6PtcyfNCgJB5p1UnGbrSA- has been uploaded

==== Log checksum 6BD7A5BFE505A3858B8052205FF85FD9552CB0D79EA5DAE57CA117B62A28AA03 ====

Код:
Код:
-----------------------

DON'T MODIFY THIS FILE

-----------------------

PERFORMER: auCDtect Task Manager, ver. 1.6.0 RC1 build 1.6.0.1
Copyright (c) 2008-2010 y-soft. All rights reserved
http:/y-soft.org

ANALYZER: auCDtect: CD records authenticity detector, version 0.8.2
Copyright (c) 2004 Oleg Berngardt. All rights reserved.
Copyright (c) 2004 Alexander Djourik. All rights reserved.

FILE: 14. Kutless - Everything I Need.flac
  Size: 22675034 Hash: 651EC5FC43F8E91976315C7DF8398948 Accuracy: -m0
  Conclusion: CDDA 100%
  Signature: 8AA151A6022E01A2365ADF1683DC154F3597B642
FILE: 13. Kutless - Take Me In.flac
  Size: 32229072 Hash: F72D87230FA6222DD6E4E43A1B5B9970 Accuracy: -m0
  Conclusion: CDDA 100%
  Signature: 645ADD7A9D75E7E90991F585E42C2FF1E70FAA58
FILE: 12. Kutless - God of Wonders.flac
  Size: 23816934 Hash: 1D9FBCEBFB5C8978EDE3C9D65015D0D3 Accuracy: -m0
  Conclusion: CDDA 100%
  Signature: F4E7433C3740DC11C24D272D36947384F5FA6E57
FILE: 11. Kutless - Amazed.flac
  Size: 28577544 Hash: B8BBD37CB336E4084C973A642B26B8D8 Accuracy: -m0
  Conclusion: CDDA 100%
  Signature: 1847D7FFD61FE7A87B344C3870164BFFEE030E0D
FILE: 10. Kutless - Better is One Day.flac
  Size: 37255050 Hash: 95B3250A363ED0C94DDF509E21362DBB Accuracy: -m0
  Conclusion: CDDA 100%
  Signature: 18EA5C1A0978EFC882077F2E815904956D84410B
FILE: 09. Kutless - Strong Tower.flac
  Size: 27866341 Hash: 8D891B68BB0AAB254C2426216D02FAF3 Accuracy: -m0
  Conclusion: CDDA 100%
  Signature: 881A45194DF8F805CF2485B9EF5C76B5EC7F3F4C
FILE: 08. Kutless - Beautiful the Blood.flac
  Size: 27753080 Hash: 4DB2F12DE741EA560BD8A8C8B87AAF36 Accuracy: -m0
  Conclusion: CDDA 99%
  Signature: 8656E48178CA22C0D2874210EA725A5B21E205DE
FILE: 07. Kutless - What Faith Can Do.flac
  Size: 27401704 Hash: C24E8D676C54F71E165097CE68AEC730 Accuracy: -m0
  Conclusion: CDDA 100%
  Signature: FA20B780415CD2E2368BD09A17811FEA9D7B39BB
FILE: 06. Kutless - Sea of Faces.flac
  Size: 27634037 Hash: A7C5AE17732CD9A9F32575B2B55437C7 Accuracy: -m0
  Conclusion: CDDA 100%
  Signature: 38D0999A201B9B09FB223DA6866A1D291986CC8B
FILE: 05. Kutless - We Fall Down.flac
  Size: 25012160 Hash: E5BC8DA43093C12C8002C9984263D412 Accuracy: -m0
  Conclusion: CDDA 100%
  Signature: E5BEE83D498180EA01DA5ABFF2797CFB1C27E7C7
FILE: 04. Kutless - It is Well.flac
  Size: 24461915 Hash: AA7CFECC168322D893EF445B56342B0E Accuracy: -m0
  Conclusion: CDDA 99%
  Signature: BDAA7EA86045187321D235ADA165F700D6D61D3C
FILE: 03. Kutless - Give Us Clean Hands.flac
  Size: 35016176 Hash: 41F3C64A5D39A141E5D6144C393CB8E3 Accuracy: -m0
  Conclusion: CDDA 99%
  Signature: 6B84FAB3434CF304B04D08058DB2AE5B2E13D9BE
FILE: 02. Kutless - All Who Are Thirsty.flac
  Size: 31869793 Hash: BE642BA5F6408CC33CFE087ACDB7B097 Accuracy: -m0
  Conclusion: CDDA 100%
  Signature: 7EB508B2AC5FE9C6A7B639E121D3651B5CDD0030
FILE: 01. Kutless - Draw Me Close.flac
  Size: 28489047 Hash: D7D1FAA021FBF5E09961A89B1CB9085C Accuracy: -m0
  Conclusion: CDDA 100%
  Signature: DADD915FF4B4E9F1394DE0131C71813B25918ECC


Тип рипа: Tracks+.cue
Аудиокодек: FLAC
Битрейт аудио: lossless
Правила, инструкции, FAQ!!!
Торрент  Добавлен [16 мар 2014, 00:37] Скачать торрент Магнет ссылка
Скачать торрент
[ Размер 16.71 КБ / Просмотров 20 ]

Статус  
 
Размер  381.72 МБ
Приватный: Нет (DHT включён)
.torrent скачан  0
 


     Отправить личное сообщение
   
Страница 1 из 1
Показать сообщения за:  Поле сортировки  
Начать новую тему Ответить на тему


Сейчас этот форум просматривают: нет зарегистрированных пользователей и гости: 0


Вы не можете начинать темы
Вы не можете отвечать на сообщения
Вы не можете редактировать свои сообщения
Вы не можете удалять свои сообщения
Вы не можете добавлять вложения

Перейти:  
cron
cron