Начать новую тему Ответить на тему
Статистика раздачи
Размер: 468.23 МБ | Добавлен: 16 мар 2014, 00:02 | Скачали: 0
Сидеров: 1  [0 байт/сек]    Личеров: 11  [0 байт/сек]
Пред. тема | След. тема 

Автор
Сообщение

СообщениеДобавлено: 16 мар 2014, 00:02 

Ответить с цитатой 

Krokodil - Krokodil (1969) Reissue 1999

Жанр: Rock/Psychedelic Rock/Blues Rock
Год: 1969
Страна: Switzerland
Released: 1999/Germany
Label: Second Battle
Catalog#: SB 052
Аудио кодек: FLAC
Тип рипа: tracks+.cue
Битрейт аудио: lossless
Продолжительность: 00:49:21
Источник-релизер: bzp01
Scans: в раздаче
Треклист:
01. Morning Dew (4:41)
02. You're Still A Part Of Me (6:29)
03. All Alone (3:57)
04. Mis Blues (3:20)
05. Prayer (4:14)
06. Watchin' Chain (6:59)
07. Dabble In Om (9:39)
08. Don't Make Promises - Bonus Track (4:00)
09. Hurra! Live - Bonus Track (3:05)
10. Camel Is Top - Bonus Track (2:56)
Код:
Код:
Exact Audio Copy V0.99 prebeta 4 from 23. January 2008

EAC extraction logfile from 7. June 2012, 10:34

Krokodil / Krokodil

Used drive  : HL-DT-STDVD-RAM GSA-H58N   Adapter: 0  ID: 0

Read mode               : Secure
Utilize accurate stream : Yes
Defeat audio cache      : Yes
Make use of C2 pointers : No

Read offset correction                      : 102
Overread into Lead-In and Lead-Out          : No
Fill up missing offset samples with silence : Yes
Delete leading and trailing silent blocks   : No
Null samples used in CRC calculations       : Yes
Used interface                              : Installed external ASPI interface
Gap handling                                : Appended to previous track

Used output format              : User Defined Encoder
Selected bitrate                : 1024 kBit/s
Quality                         : High
Add ID3 tag                     : No
Command line compressor         : C:\Arquivos de programas\Exact Audio Copy\Flac\flac.exe
Additional command line options : -8 -A tukey(0.25) -A gauss(0.1875) -b 4096 -V -T "artist=%a" -T "title=%t" -T "album=%g" -T "date=%y" -T "tracknumber=%n" -T "genre=%m" %s --sector-align

TOC of the extracted CD

     Track |   Start  |  Length  | Start sector | End sector
    ---------------------------------------------------------
        1  |  0:00.00 |  4:41.22 |         0    |    21096
        2  |  4:41.22 |  6:29.13 |     21097    |    50284
        3  | 11:10.35 |  3:56.70 |     50285    |    68054
        4  | 15:07.30 |  3:19.52 |     68055    |    83031
        5  | 18:27.07 |  4:14.08 |     83032    |   102089
        6  | 22:41.15 |  6:59.12 |    102090    |   133526
        7  | 29:40.27 |  9:39.05 |    133527    |   176956
        8  | 39:19.32 |  3:59.45 |    176957    |   194926
        9  | 43:19.02 |  3:05.20 |    194927    |   208821
       10  | 46:24.22 |  2:56.25 |    208822    |   222046

Track  1

     Filename C:\Documents and Settings\Nelson\Meus documentos\My EAC\01 - Krokodil - Morning Dew.wav

     Pre-gap length  0:00:02.00

     Peak level 98.0 %
     Track quality 99.8 %
     Test CRC 40ED7854
     Copy CRC 40ED7854
     Copy OK

Track  2

     Filename C:\Documents and Settings\Nelson\Meus documentos\My EAC\02 - Krokodil - You're Still A Part Of Me.wav

     Pre-gap length  0:00:01.93

     Peak level 97.9 %
     Track quality 99.9 %
     Test CRC AE8DAA99
     Copy CRC AE8DAA99
     Copy OK

Track  3

     Filename C:\Documents and Settings\Nelson\Meus documentos\My EAC\03 - Krokodil - All Alone.wav

     Pre-gap length  0:00:02.20

     Peak level 97.9 %
     Track quality 100.0 %
     Test CRC 47C5EF8E
     Copy CRC 47C5EF8E
     Copy OK

Track  4

     Filename C:\Documents and Settings\Nelson\Meus documentos\My EAC\04 - Krokodil - Mis Blues.wav

     Pre-gap length  0:00:01.60

     Peak level 97.9 %
     Track quality 100.0 %
     Test CRC B6EF46D8
     Copy CRC B6EF46D8
     Copy OK

Track  5

     Filename C:\Documents and Settings\Nelson\Meus documentos\My EAC\05 - Krokodil - Prayer.wav

     Pre-gap length  0:00:02.13

     Peak level 98.0 %
     Track quality 100.0 %
     Test CRC E834A382
     Copy CRC E834A382
     Copy OK

Track  6

     Filename C:\Documents and Settings\Nelson\Meus documentos\My EAC\06 - Krokodil - Watchin' Chain.wav

     Pre-gap length  0:00:01.13

     Peak level 97.9 %
     Track quality 99.7 %
     Test CRC 6388EAAD
     Copy CRC 6388EAAD
     Copy OK

Track  7

     Filename C:\Documents and Settings\Nelson\Meus documentos\My EAC\07 - Krokodil - Dabble In Om.wav

     Pre-gap length  0:00:02.16

     Peak level 100.0 %
     Track quality 100.0 %
     Test CRC FE970DB3
     Copy CRC FE970DB3
     Copy OK

Track  8

     Filename C:\Documents and Settings\Nelson\Meus documentos\My EAC\08 - Krokodil - Don't Make Promises - Bonus Track.wav

     Pre-gap length  0:00:04.20

     Peak level 100.0 %
     Track quality 100.0 %
     Test CRC 2A4B1E19
     Copy CRC 2A4B1E19
     Copy OK

Track  9

     Filename C:\Documents and Settings\Nelson\Meus documentos\My EAC\09 - Krokodil - Hurra! Live - Bonus Track.wav

     Pre-gap length  0:00:02.76

     Peak level 100.0 %
     Track quality 99.9 %
     Test CRC E2447136
     Copy CRC E2447136
     Copy OK

Track 10

     Filename C:\Documents and Settings\Nelson\Meus documentos\My EAC\10 - Krokodil - Camel Is Top - Bonus Track.wav

     Pre-gap length  0:00:02.36

     Peak level 100.0 %
     Track quality 99.9 %
     Test CRC EB929EAC
     Copy CRC EB929EAC
     Copy OK

No errors occurred

End of status report
Код:
Код:
-----------------------

DON'T MODIFY THIS FILE

-----------------------

PERFORMER: auCDtect Task Manager, ver. 1.5.1RC4 build 1.5.1.5
Copyright (c) 2008-2010 y-soft. All rights reserved
http:/y-soft.org

ANALYZER: auCDtect: CD records authenticity detector, version 0.8.2
Copyright (c) 2004 Oleg Berngardt. All rights reserved.
Copyright (c) 2004 Alexander Djourik. All rights reserved.

FILE: 10 - Krokodil - Camel Is Top - Bonus Track.flac
  Size: 21203694 Hash: 139AD1101FC66E4490208DF5B28C7816 Accuracy: -m0
  Conclusion: CDDA 100%
  Signature: 1C1D60021CEBC722B858B94D2749167EC1D380BC
FILE: 09 - Krokodil - Hurra! Live - Bonus Track.flac
  Size: 11081654 Hash: 5E2FCCFF350AA33192297B19A936599A Accuracy: -m0
  Conclusion: CDDA 99%
  Signature: AB2F232917D20EE4E8FD38FB4816E857FF285547
FILE: 08 - Krokodil - Don't Make Promises - Bonus Track.flac
  Size: 14702625 Hash: 49652EB8FAC641723833C56D0A73AA0C Accuracy: -m0
  Conclusion: CDDA 100%
  Signature: 9635B96D16834B14BBCF5AFC5ED465C56EF3A582
FILE: 07 - Krokodil - Dabble In Om.flac
  Size: 59519350 Hash: 9CB2679EB94AD66975CFA95D3C4DD9D1 Accuracy: -m0
  Conclusion: CDDA 100%
  Signature: B90742356559A96D4237C705AE7D77EF389B20BD
FILE: 06 - Krokodil - Watchin' Chain.flac
  Size: 52052924 Hash: 24FAD27E0C8CCCFE07EC9CF9FE73E8C4 Accuracy: -m0
  Conclusion: CDDA 100%
  Signature: 45E809AF886DC57EF08185A505E3677B3DD386D8
FILE: 05 - Krokodil - Prayer.flac
  Size: 27161574 Hash: BEFEC956D7C37DAA3518096420096B2A Accuracy: -m0
  Conclusion: CDDA 100%
  Signature: 01B79F2BAA5D9FC0C7735AFCAA3AD8A2EC00D0F5
FILE: 04 - Krokodil - Mis Blues.flac
  Size: 23896123 Hash: 0B682584DDEC5D6B9FCB739BFEE7BA89 Accuracy: -m0
  Conclusion: CDDA 100%
  Signature: 523C69CF8812B0AE1DD3EC1BDBF168E6B0C5CD15
FILE: 03 - Krokodil - All Alone.flac
  Size: 28282131 Hash: 96CFAF0F571BD062918F0942FC84A723 Accuracy: -m0
  Conclusion: CDDA 100%
  Signature: 6D67B94B0F9F4B329AA26411A4F41284B4B2DD2D
FILE: 02 - Krokodil - You're Still A Part Of Me.flac
  Size: 48663216 Hash: 3B8D97E8B299B0707080AD848FA46F82 Accuracy: -m0
  Conclusion: CDDA 100%
  Signature: 25F7DF144AA48EC1C710604AEF29A9D436DE9A2D
FILE: 01 - Krokodil - Morning Dew.flac
  Size: 34274676 Hash: 7500DC8C9BCD9F10AB89D7A803B6047D Accuracy: -m0
  Conclusion: CDDA 100%
  Signature: 06B5445942ACE15220D690AC273B045F5B05D0FD
Код:
Код:
REM GENRE "Psychedelic Rock"
REM DATE 1969
REM DISCID 860B900A
REM COMMENT "ExactAudioCopy v0.99pb4"
PERFORMER "Krokodil"
TITLE "Krokodil"
FILE "01 - Krokodil - Morning Dew.wav" WAVE
  TRACK 01 AUDIO
    TITLE "Morning Dew"
    PERFORMER "Krokodil"
    INDEX 01 00:00:00
  TRACK 02 AUDIO
    TITLE "You're Still A Part Of Me"
    PERFORMER "Krokodil"
    INDEX 00 04:39:27
FILE "02 - Krokodil - You're Still A Part Of Me.wav" WAVE
    INDEX 01 00:00:00
  TRACK 03 AUDIO
    TITLE "All Alone"
    PERFORMER "Krokodil"
    INDEX 00 06:26:73
FILE "03 - Krokodil - All Alone.wav" WAVE
    INDEX 01 00:00:00
  TRACK 04 AUDIO
    TITLE "Mis Blues"
    PERFORMER "Krokodil"
    INDEX 00 03:55:25
FILE "04 - Krokodil - Mis Blues.wav" WAVE
    INDEX 01 00:00:00
  TRACK 05 AUDIO
    TITLE "Prayer"
    PERFORMER "Krokodil"
    INDEX 00 03:17:42
FILE "05 - Krokodil - Prayer.wav" WAVE
    INDEX 01 00:00:00
  TRACK 06 AUDIO
    TITLE "Watchin' Chain"
    PERFORMER "Krokodil"
    INDEX 00 04:12:73
FILE "06 - Krokodil - Watchin' Chain.wav" WAVE
    INDEX 01 00:00:00
  TRACK 07 AUDIO
    TITLE "Dabble In Om"
    PERFORMER "Krokodil"
    INDEX 00 06:57:00
FILE "07 - Krokodil - Dabble In Om.wav" WAVE
    INDEX 01 00:00:00
  TRACK 08 AUDIO
    TITLE "Don't Make Promises - Bonus Track"
    PERFORMER "Krokodil"
    INDEX 00 09:34:65
FILE "08 - Krokodil - Don't Make Promises - Bonus Track.wav" WAVE
    INDEX 01 00:00:00
  TRACK 09 AUDIO
    TITLE "Hurra! Live - Bonus Track"
    PERFORMER "Krokodil"
    INDEX 00 03:56:63
FILE "09 - Krokodil - Hurra! Live - Bonus Track.wav" WAVE
    INDEX 01 00:00:00
  TRACK 10 AUDIO
    TITLE "Camel Is Top - Bonus Track"
    PERFORMER "Krokodil"
    INDEX 00 03:02:68
FILE "10 - Krokodil - Camel Is Top - Bonus Track.wav" WAVE
    INDEX 01 00:00:00
#777
Дебютный альбом группы из Цюриха. В январе 1969 года музыкальная сцена Цюриха пополнилась командой с провокационно-грозным названием "Krokodil". Из пяти музыкантов, вошедших в оригинальный состав, больше половины не были новичками в шоу-бизнесе. Барабанщик Dude Durst успел поработать в бит-бэндах "The Starlights" и "Les Sauterelles", причем последняя группа, именуемая швейцарскими "Beatles", побывала на верхушке национального хит-парада. Клавишник и вокалист Hardy Hepp сотрудничал с фирмами "Columbia" и "Liberty" и успел обрести славу "альпийского Тома Джонса". Walty Anselmo, освоивший в совершенстве несколько инструментов, в том числе и ситар, среди прочих заслуг имел звание финалиста местного ритм-энд-блюзового фестиваля. Компанию этой троице составили Mojo Weideli (гармоника, флейта, вокал) и уроженец Лондона Terry Stevens (гитара, бас, вокал). Довольно быстро "крокодилам" удалось заполучить контракт с "Liberty/United Artists", и уже в мае 1969-го они отправились в мюнхенскую студию "Trixie", где вместе с продюсером Siegfried Loch записали дебютную пластинку. Из семи композиций, присутствовавших на диске, лишь две вещи не принадлежали самой группе: открывашка "Morning Dew", позаимствованная у Тима Роуза и оформленная в психоделической манере а-ля "Doors", и блюзовая традиционка "Watchin' Chain"… (rock-archeologia)

Credits
- Arranged By [All Titles] – Krokodil
- Bass, Guitar, Vocals – Terry Stevens (2)
- Drums, Percussion, Vocals, Design [Cover Design] – Dude Durst
- Harmonica, Flute, Percussion – Mojo Weideli
- Photography By – Eddie Seebach, Focus (19)
- Producer – Krokodil (tracks: 10), Siegfried Loch* (tracks: 1 to 9)
- Recorded By – Serge Meyer (tracks: 10)
- Recorded By, Mixed By – Willi Schmidt (tracks: 1 to 9)
- Sitar, Lead Guitar, Vocals – Walty Anselmo
- Violin, Piano, Vocals – Hardy Hepp
Notes
Tracks 1 to 9 recorded at TRIXI-Tonstudios, Munchen, May 1969.
Track 10 recorded in Switzerland 1969.
Правила, инструкции, FAQ!!!
Торрент  Добавлен [16 мар 2014, 00:02] Скачать торрент Магнет ссылка
Скачать торрент
[ Размер 20.68 КБ / Просмотров 31 ]

Статус  
 
Размер  468.23 МБ
Приватный: Нет (DHT включён)
.torrent скачан  0
 


     Отправить личное сообщение
   
Страница 1 из 1
Показать сообщения за:  Поле сортировки  
Начать новую тему Ответить на тему


Сейчас этот форум просматривают: нет зарегистрированных пользователей и гости: 0


Вы не можете начинать темы
Вы не можете отвечать на сообщения
Вы не можете редактировать свои сообщения
Вы не можете удалять свои сообщения
Вы не можете добавлять вложения

Перейти:  
cron