Начать новую тему Ответить на тему
Статистика раздачи
Размер: 909.6 МБ | Добавлен: 24 авг 2016, 12:22 | Скачали: 3
Сидеров: 7  [0 байт/сек]    Личеров: 0  [0 байт/сек]
Пред. тема | След. тема 

Автор
Сообщение

СообщениеДобавлено: 24 авг 2016, 12:22 

Ответить с цитатой 

Karat - Schwanenkonig

Жанр: Kraut Rock/Progressive Rock
Носитель: LP
Год выпуска: 1980
Лейбл: AMIGA / 8-55-770
Страна-производитель: DDR
Аудио кодек: FLAC
Тип рипа: image+.cue
Формат записи: 24/96
Формат раздачи: 24/96
Продолжительность: 00:45:07
Треклист:
Saite 1
1. Tanz mit der Sphinx
2. Mitternacht-Blues
3. Magisches Light
4. Der Boxer
5. Le Doyen I

Saite 2
1. Das Narrenschiff
2. Tiefsee
3. GroSstadt
4. Schwanenkonig
5. Le Doyen II

Источник оцифровки: Valiko(aka Валентин)
Код класса состояния винила: VG+
Устройство воспроизведения: VICTOR JL-B37
Головка звукоснимателя: SHURE V15/III /Stylus SAS VN35HE "Special Tracking" JICO
Предварительный усилитель: VICTOR P-3030
АЦП: ONKYO WAVIO SE-300PCIE
Программа-оцифровщик: WavePurity Professional
Обработка: не производилась
foobar2000 1.3.5 / Dynamic Range Meter 1.1.1
log date: 2015-02-22 12:21:12

--------------------------------------------------------------------------------
Analyzed: Karat / ?
--------------------------------------------------------------------------------

DR Peak RMS Duration Track
--------------------------------------------------------------------------------
DR12 -0.14 dB -15.18 dB 5:34 01-Tanz mit der Sphinx
DR13 -0.01 dB -15.30 dB 6:04 02-Mitternacht-Blues
DR13 -1.36 dB -17.46 dB 5:02 03-Magisches Light
DR13 -1.99 dB -16.41 dB 2:55 04-Der Boxer
DR11 -7.01 dB -22.07 dB 2:07 05-Le Doyen I
DR11 -0.01 dB -13.68 dB 4:54 06-Das Narrenschiff
DR12 -0.43 dB -15.78 dB 5:46 07-Tiefsee
DR14 -0.99 dB -16.49 dB 3:49 08-GroSstadt
DR13 -0.72 dB -16.23 dB 6:02 09-Schwanenkonig
DR12 -3.60 dB -20.16 dB 2:55 10-Le Doyen II
--------------------------------------------------------------------------------

Number of tracks: 10
Official DR value: DR12

Samplerate: 96000 Hz
Channels: 2
Bits per sample: 24
Bitrate: 2817 kbps
Codec: FLAC
================================================================================
Bernd Romer-Guitar
Herbert Dreilich-Vocal
Henning Protzmann-Bass
Ulrich Ed Swillms-Vocal,Percussion,Keyboards
Michael Schwandt-Drums,Percussion
Karat - немецкая рок-группа. Образована в 1975 году в Восточном Берлине и существует до сих пор. Karat - один из основоположников немецкоязычной рок-музыки, представитель движения, называемого краутрок. Широко известная в бывшей Восточной Германии группа Karat также получила широкую известность и за пределами ГДР. Их альбом 1982 года Der blaue Planet был одним из самых продаваемых как в Восточной, так и в Западной Германии. Несмотря на то, что с годами состав группы неоднократно менялся, Karat по-прежнему сохраняет международное признание.
Karat ведет родословную от восточно-берлинской jazz-rock fusion группы Panta Rhei, которая потеряла свое фирменное звучание в 1973 году после ухода вокалистки Вероники Фишер, начавшей сольную карьеру, и в 1975 году прекратила существование, когда еще трое музыкантов оставили её, чтобы сформировать новую группу Karat.
#777
Правила, инструкции, FAQ!!!
Торрент  Добавлен [24 авг 2016, 12:22] Скачать торрент Магнет ссылка
Скачать торрент
[ Размер 18.43 КБ / Просмотров 9 ]

Статус
Проверен 
 
Размер  909.6 МБ
Приватный: Нет (DHT включён)
.torrent скачан  3
 


     Отправить личное сообщение
   
Страница 1 из 1
Показать сообщения за:  Поле сортировки  
Начать новую тему Ответить на тему


Сейчас этот форум просматривают: нет зарегистрированных пользователей и гости: 0


Вы не можете начинать темы
Вы не можете отвечать на сообщения
Вы не можете редактировать свои сообщения
Вы не можете удалять свои сообщения
Вы не можете добавлять вложения

Перейти:  
cron
cron