Начать новую тему Ответить на тему
Статистика раздачи
Размер: 1.42 ГБ | Добавлен: 21 янв 2018, 21:44 | Скачали: 2
Сидеров: 0  [0 байт/сек]    Личеров: 0  [0 байт/сек]
Пред. тема | След. тема 

Автор
Сообщение

СообщениеДобавлено: 21 янв 2018, 21:44 

Ответить с цитатой 

Конец ***го мира / The End Of The F***ing World

Страна: Великобритания
Производство: Dominic Buchanan Productions, Clerkenwell Films
Год выпуска: 2017
Сезон: 1
Жанр: драма, комедия
Продолжительность: 8х ~00:22:00

Режиссеры: Джонатан Энтвистл, Люси Черняк
Авторы сценария: Чарли Ковелл, Чарльз С. Форсман

В ролях: Джессика Барден, Алекс Лоутер, Стив Орам, Вунми Моссаку, Джемма Уилан, Кристин Боттомли, Навин Чоудхри, Джонатан Арис

Описание: Джеймсу семнадцать и он уверен, что он психопат. Алисе тоже семнадцать, и она крутая капризная новенькая девчонка в школе. Они с пол-оборота заводят подростковый роман, и Алиса уговаривает Джеймса начать поиски её отца. Джеймсу от Алисы тоже кое-что нужно...



Перевод: Любительский многоголосый закадровый [ Hamsterstudio ]
Субтитры: нет


Качество: WEBRip
Формат: АVI
Видео кодек: XviD
Аудио кодек: МР3
Видео: 720x400 (16:9), 25.000 fps, XviD ~1 100 kbps avg
Аудио: 48.0 kHz, MPEG Layer 3, 2 ch, ~128 kbps avg

Дата премьеры (мир): 24 октября 2017



General
Complete name : The End Of The F__ing World_S01E01.avi
Format : AVI
Format/Info : Audio Video Interleave
File size : 166 MiB
Duration : 18mn 48s
Overall bit rate : 1 231 Kbps
Writing application : VirtualDubMod 1.5.10.2 (build 2540/release)
Writing library : VirtualDubMod build 2540/release

Video
ID : 0
Format : MPEG-4 Visual
Format profile : Advanced Simple@L5
Format settings, BVOP : 2
Format settings, QPel : No
Format settings, GMC : No warppoints
Format settings, Matrix : Default (H.263)
Muxing mode : Packed bitstream
Codec ID : XVID
Codec ID/Hint : XviD
Duration : 18mn 48s
Bit rate : 1 093 Kbps
Width : 720 pixels
Height : 400 pixels
Display aspect ratio : 16:9
Frame rate : 25.000 fps
Color space : YUV
Chroma subsampling : 4:2:0
Bit depth : 8 bits
Scan type : Progressive
Compression mode : Lossy
Bits/(Pixel*Frame) : 0.152
Stream size : 147 MiB (89%)
Writing library : XviD 66

Audio
ID : 1
Format : MPEG Audio
Format version : Version 1
Format profile : Layer 3
Mode : Joint stereo
Mode extension : MS Stereo
Codec ID : 55
Codec ID/Hint : MP3
Duration : 18mn 48s
Bit rate mode : Constant
Bit rate : 128 Kbps
Channel(s) : 2 channels
Sampling rate : 48.0 KHz
Compression mode : Lossy
Stream size : 17.2 MiB (10%)
Alignment : Aligned on interleaves
Interleave, duration : 40 ms (1.00 video frame)
Interleave, preload duration : 504 ms
Правила, инструкции, FAQ!!!
Торрент  Добавлен [21 янв 2018, 21:44] Скачать торрент Магнет ссылка
Скачать торрент
[ Размер 15.66 КБ / Просмотров 199 ]

Статус
Проверен 
 
Размер  1.42 ГБ
Приватный: Нет (DHT включён)
.torrent скачан  2
 


     Отправить личное сообщение
   
Страница 1 из 1
Показать сообщения за:  Поле сортировки  
Начать новую тему Ответить на тему


Сейчас этот форум просматривают: нет зарегистрированных пользователей и гости: 0


Вы не можете начинать темы
Вы не можете отвечать на сообщения
Вы не можете редактировать свои сообщения
Вы не можете удалять свои сообщения
Вы не можете добавлять вложения

Перейти:  
cron