Начать новую тему Ответить на тему
Статистика раздачи
Размер: 426.34 МБ | Добавлен: 16 мар 2014, 00:03 | Скачали: 0
Сидеров: 1  [0 байт/сек]    Личеров: 0  [0 байт/сек]
Пред. тема | След. тема 

Автор
Сообщение

СообщениеДобавлено: 16 мар 2014, 00:03 

Ответить с цитатой 

Kid Rock - Born Free (2010)

Год: 2010
Жанр: Rock, Country rock, Blues rock
Продолжительность: 01:00:34

Кодек: FLAC
Битрейт: Lossless
Тип битрейта: VBR

Треклист:
01. Born Free (5:15)
02. Slow My Roll (4:19)
03. Care (feat. Martina McBride & T.I.) (4:12)
04. Purple Sky (4:07)
05. When It Rains (4:46)
06. God Bless Saturday (3:35)
07. Collide (feat. Sheryl Crow & Bob Seger on piano) (4:49)
08. Flyin' High (feat. Zac Brown) (4:04)
09. Times Like These (5:57)
10. Rock On (5:23)
11. Rock Bottom Blues (3:52)
12. For the First Time (In a Long Time) (5:56)
13. Care (Demo Version) (4:25)
Personnel:
Kid Rock - lead vocals, guitar
Marlon Young - lead guitar
David Hidalgo - guitar
Matt Sweeney - guitar, bass guitar
Chad Smith - drums, percussion
Benmont Tench - keyboards, piano
Blake Mills - banjo, guitar

Additional personnel:
Bob Seger - piano on "Collide"
Sheryl Crow - vocals on "Collide"
Zac Brown - vocals on "Flying High"
T.I. - vocals on "Care"
Martina McBride - vocals on "Care"
Код:
Код:
Exact Audio Copy V0.99 prebeta 5 from 4. May 2009

EAC extraction logfile from 13. November 2010, 16:16

Kid Rock / Born Free

Used drive  : TSSTcorpDVD+-RW TS-H653G   Adapter: 3  ID: 0

Read mode               : Secure
Utilize accurate stream : Yes
Defeat audio cache      : Yes
Make use of C2 pointers : No

Read offset correction                      : 6
Overread into Lead-In and Lead-Out          : No
Fill up missing offset samples with silence : Yes
Delete leading and trailing silent blocks   : No
Null samples used in CRC calculations       : No
Used interface                              : Native Win32 interface for Win NT & 2000
Gap handling                                : Appended to previous track

Used output format              : User Defined Encoder
Selected bitrate                : 320 kBit/s
Quality                         : High
Add ID3 tag                     : No
Command line compressor         : C:\Program Files (x86)\Exact Audio Copy\FLAC\FLAC.EXE
Additional command line options : -V -8 -T "artist=%a" -T "title=%t" -T "album=%g" -T "date=%y" -T "tracknumber=%n" -T "genre=%m" %s

TOC of the extracted CD

     Track |   Start  |  Length  | Start sector | End sector
    ---------------------------------------------------------
        1  |  0:00.15 |  5:14.54 |        15    |    23618
        2  |  5:14.69 |  4:19.36 |     23619    |    43079
        3  |  9:34.30 |  4:12.37 |     43080    |    62016
        4  | 13:46.67 |  4:06.49 |     62017    |    80515
        5  | 17:53.41 |  4:46.27 |     80516    |   101992
        6  | 22:39.68 |  3:35.19 |    101993    |   118136
        7  | 26:15.12 |  4:49.25 |    118137    |   139836
        8  | 31:04.37 |  4:03.43 |    139837    |   158104
        9  | 35:08.05 |  5:57.05 |    158105    |   184884
       10  | 41:05.10 |  5:23.08 |    184885    |   209117
       11  | 46:28.18 |  3:51.62 |    209118    |   226504
       12  | 50:20.05 |  5:55.57 |    226505    |   253186
       13  | 56:15.62 |  4:24.53 |    253187    |   273039

Track  1

     Filename T:\EAC-RIPS\Kid Rock - Born Free (2010)\01 - Born Free.wav

     Pre-gap length  0:00:02.15

     Peak level 100.0 %
     Track quality 100.0 %
     Test CRC 379A691E
     Copy CRC 379A691E
     Track not present in AccurateRip database
     Copy OK

Track  2

     Filename T:\EAC-RIPS\Kid Rock - Born Free (2010)\02 - Slow My Roll.wav

     Pre-gap length  0:00:01.06

     Peak level 100.0 %
     Track quality 100.0 %
     Test CRC 3D8F08F4
     Copy CRC 3D8F08F4
     Track not present in AccurateRip database
     Copy OK

Track  3

     Filename T:\EAC-RIPS\Kid Rock - Born Free (2010)\03 - Care (feat. Martina McBride & T.I.).wav

     Pre-gap length  0:00:01.18

     Peak level 100.0 %
     Track quality 100.0 %
     Test CRC 2EA8A89B
     Copy CRC 2EA8A89B
     Track not present in AccurateRip database
     Copy OK

Track  4

     Filename T:\EAC-RIPS\Kid Rock - Born Free (2010)\04 - Purple Sky.wav

     Pre-gap length  0:00:00.71

     Peak level 92.3 %
     Track quality 100.0 %
     Test CRC 50D385A5
     Copy CRC 50D385A5
     Track not present in AccurateRip database
     Copy OK

Track  5

     Filename T:\EAC-RIPS\Kid Rock - Born Free (2010)\05 - When It Rains.wav

     Pre-gap length  0:00:01.72

     Peak level 100.0 %
     Track quality 100.0 %
     Test CRC A2A49659
     Copy CRC A2A49659
     Track not present in AccurateRip database
     Copy OK

Track  6

     Filename T:\EAC-RIPS\Kid Rock - Born Free (2010)\06 - God Bless Saturday.wav

     Pre-gap length  0:00:01.17

     Peak level 100.0 %
     Track quality 100.0 %
     Test CRC D1560584
     Copy CRC D1560584
     Track not present in AccurateRip database
     Copy OK

Track  7

     Filename T:\EAC-RIPS\Kid Rock - Born Free (2010)\07 - Collide (feat. Sheryl Crow & Bob Seger on piano).wav

     Pre-gap length  0:00:00.66

     Peak level 100.0 %
     Track quality 100.0 %
     Test CRC 1A03282D
     Copy CRC 1A03282D
     Track not present in AccurateRip database
     Copy OK

Track  8

     Filename T:\EAC-RIPS\Kid Rock - Born Free (2010)\08 - Flyin' High (feat. Zac Brown).wav

     Pre-gap length  0:00:00.42

     Peak level 100.0 %
     Track quality 100.0 %
     Test CRC FAC7337D
     Copy CRC FAC7337D
     Track not present in AccurateRip database
     Copy OK

Track  9

     Filename T:\EAC-RIPS\Kid Rock - Born Free (2010)\09 - Times Like These.wav

     Pre-gap length  0:00:00.52

     Peak level 100.0 %
     Track quality 100.0 %
     Test CRC DB9864CA
     Copy CRC DB9864CA
     Track not present in AccurateRip database
     Copy OK

Track 10

     Filename T:\EAC-RIPS\Kid Rock - Born Free (2010)\10 - Rock On.wav

     Pre-gap length  0:00:01.05

     Peak level 100.0 %
     Track quality 99.9 %
     Test CRC 66ABF5C8
     Copy CRC 66ABF5C8
     Track not present in AccurateRip database
     Copy OK

Track 11

     Filename T:\EAC-RIPS\Kid Rock - Born Free (2010)\11 - Rock Bottom Blues.wav

     Pre-gap length  0:00:01.10

     Peak level 89.6 %
     Track quality 100.0 %
     Test CRC 871346DE
     Copy CRC 871346DE
     Track not present in AccurateRip database
     Copy OK

Track 12

     Filename T:\EAC-RIPS\Kid Rock - Born Free (2010)\12 - For the First Time (In a Long Time).wav

     Pre-gap length  0:00:00.67

     Peak level 100.0 %
     Track quality 100.0 %
     Test CRC 9F9DA29F
     Copy CRC 9F9DA29F
     Track not present in AccurateRip database
     Copy OK

Track 13

     Filename T:\EAC-RIPS\Kid Rock - Born Free (2010)\13 - Care (Demo Version).wav

     Pre-gap length  0:00:09.72

     Peak level 100.0 %
     Track quality 100.0 %
     Test CRC 4BB527DD
     Copy CRC 4BB527DD
     Track not present in AccurateRip database
     Copy OK

None of the tracks are present in the AccurateRip database

No errors occurred

End of status report
Код:
Код:
-----------------------

DON'T MODIFY THIS FILE

-----------------------

PERFORMER: auCDtect Task Manager, ver. 1.5.1RC4 build 1.5.1.5
Copyright (c) 2008-2010 y-soft. All rights reserved
http:/y-soft.org

ANALYZER: auCDtect: CD records authenticity detector, version 0.8.2
Copyright (c) 2004 Oleg Berngardt. All rights reserved.
Copyright (c) 2004 Alexander Djourik. All rights reserved.

FILE: 13 - Care (Demo Version).flac
  Size: 31651528 Hash: 2C7E1BE7887CDA8C3E7AD732B670D276 Accuracy: -m0
  Conclusion: CDDA 100%
  Signature: 545E31327D4EA54E1E890547622D3A6D3B0E43BB
FILE: 12 - For the First Time (In a Long Time).flac
  Size: 42295935 Hash: 986BDFD0E93B1CB4C93200197B7BD758 Accuracy: -m0
  Conclusion: CDDA 99%
  Signature: 0EDB34F67A8B8EAED5ECE516C0E29B2867EE630F
FILE: 11 - Rock Bottom Blues.flac
  Size: 28479243 Hash: A7DAF822E794D29376B06B42C010519C Accuracy: -m0
  Conclusion: CDDA 100%
  Signature: 3A50099C5A89D499FB47BE968C59B1BC435FAF5D
FILE: 10 - Rock On.flac
  Size: 36995425 Hash: C32A99F03FAF19261782FD24FF6323D4 Accuracy: -m0
  Conclusion: CDDA 100%
  Signature: 40999E0363210EDD139829B7391213654DEB0AFF
FILE: 09 - Times Like These.flac
  Size: 45255400 Hash: CB11A0050465689ACD32BD5B9D149B98 Accuracy: -m0
  Conclusion: CDDA 100%
  Signature: 7073638CF87E9430DA45722D884B041F2636BE88
FILE: 08 - Flyin' High (feat. Zac Brown).flac
  Size: 30551968 Hash: 4B7005877B71E8E712F8C6756FD36AE8 Accuracy: -m0
  Conclusion: CDDA 100%
  Signature: 975972D6EF717FEC3A755817F4E333038A364181
FILE: 07 - Collide (feat. Sheryl Crow & Bob Seger on piano).flac
  Size: 34221681 Hash: D1DCF814D162C47621B4AB81E4BF801E Accuracy: -m0
  Conclusion: CDDA 100%
  Signature: EAA2DD330F66D6EA4F675B71AEFA62E68531D57B
FILE: 06 - God Bless Saturday.flac
  Size: 27302006 Hash: 5EEDEDBC19F60F99666EC86EF827BC03 Accuracy: -m0
  Conclusion: CDDA 100%
  Signature: 1C3F96EA1A09B22E3B34D5AAF00B99C4A3097034
FILE: 05 - When It Rains.flac
  Size: 34789883 Hash: FC1F794C90D847872F0C91BD1CD6B19F Accuracy: -m0
  Conclusion: CDDA 100%
  Signature: 36691DF79906610E826D87F6512E96C76A6189F1
FILE: 04 - Purple Sky.flac
  Size: 31962326 Hash: EFBD678042B9A2CDCE303102FDA7ADE9 Accuracy: -m0
  Conclusion: CDDA 100%
  Signature: 7C91E43EB9110DF2CB2C565A509D2301DA25E014
FILE: 03 - Care (feat. Martina McBride & T.I.).flac
  Size: 30252373 Hash: DB466503A76BBD6A527DCB72721CE088 Accuracy: -m0
  Conclusion: CDDA 100%
  Signature: 491DD3470650AE8E9A3E4CFB91026FF280B6787A
FILE: 02 - Slow My Roll.flac
  Size: 34025566 Hash: AA72D6C2684B8CBE8E5E88FEC8044943 Accuracy: -m0
  Conclusion: CDDA 100%
  Signature: A530645176B86873024EBE226198C5935BB94B1E
FILE: 01 - Born Free.flac
  Size: 39115008 Hash: AD424B7512AD44939307C4F9C4622F20 Accuracy: -m0
  Conclusion: CDDA 99%
  Signature: AD51A40A484275B191669076F66B8F9F700A8C11
Правила, инструкции, FAQ!!!
Торрент  Добавлен [16 мар 2014, 00:03] Скачать торрент Магнет ссылка
Скачать торрент
[ Размер 18.38 КБ / Просмотров 26 ]

Статус  
 
Размер  426.34 МБ
Приватный: Нет (DHT включён)
.torrent скачан  0
 


     Отправить личное сообщение
   
Страница 1 из 1
Показать сообщения за:  Поле сортировки  
Начать новую тему Ответить на тему


Сейчас этот форум просматривают: нет зарегистрированных пользователей и гости: 0


Вы не можете начинать темы
Вы не можете отвечать на сообщения
Вы не можете редактировать свои сообщения
Вы не можете удалять свои сообщения
Вы не можете добавлять вложения

Перейти:  
cron
cron