Начать новую тему Ответить на тему
Статистика раздачи
Размер: 304.59 МБ | Добавлен: 16 мар 2014, 00:15 | Скачали: 1
Сидеров: 0  [0 байт/сек]    Личеров: 0  [0 байт/сек]
Пред. тема | След. тема 

Автор
Сообщение

СообщениеДобавлено: 16 мар 2014, 00:15 

Ответить с цитатой 

Kestrel - Kestrel (1975) Released 1999

Жанр: Art Rock
Год: 1975
Страна: UK
Released: 1999/UK
Label: Eclipse Records
Catalog#: ECCD4
Аудио кодек: FLAC
Тип рипа: tracks + .cue
Битрейт аудио: lossless
Продолжительность: 00:43:57
Источник-релизер: alex752
Scans: в раздаче
Треклист:
01. The Acrobat (6:43)
02. Wind Cloud (4:39)
03. I Believe In You (4:08)
04. Last Request (4:47)
05. In The War (7:28)
06. Take It Away (4:08)
07. End Of The Affair (4:48)
08. August Carol (7:16)

Kestrel (по-русски "пустельга", то есть хищная птица из отряда соколообразных семейства соколиных) в некотором роде везунчики. Не гонялись за продюсером, не обивали пороги фирм звукозаписи. В начале 1970-х этот симфо-роковый квинтет вечерами играл в свое удовольствие в одном из лондонских колледжей. Там ребят заприметил некто Джон Уорт, сотрудник небольшого лейбла Cube - подразделения компании Decca. Вот он и помог молодым "пернатым" друзьям выпустить в 1975 году первую (и последнюю) пластинку, по прошествии тридцати лет признанную международным сообществом меломанов одним из наиболее ярких релизов второй волны британского арт-рока. И с этим трудно не согласиться. Ибо материал, львиная доля которого сочинена гитаристом Дэйвом Блэком, по степени мелодичности и звуковой привлекательности способен поспорить с лучшими образцами поп-музыки. Песенноориентированное содержимое диска во многом наследует идеям классиков протопрогрессива - Spring, Cressida, Fantasy. Но вот звучание у Kestrel все-таки свое. Сочные, великолепно записанные композиции демонстрируют отменный исполнительский уровень: цепкие риффы и соло-проходы Блэка, обширный арсенал клавишных (орган, электропиано, Меллотрон, синтезаторы) Джона Кука, сильный и чистый вокал Тома Ноулза, слаженную работу ритм-секции (басист Фэнвик Мюир - ударник Дэвид Уайтэкер). Характер треков варьируется от мягких лирических баллад ("Wind Cloud" - совершенная жемчужина альбома) до пролонгированных эпических вещей ("In The War", "August Carol"). Релиз воспринимается на одном дыхании.
Автор: Sergei Uvaroff

Состав:
- Dave Black - guitar, vocals
- John Cook - guitar, synthesizers
- Tom Knowles - lead vocals
- Fenwick Moir - bass
- Dave Whitaker - drums, percussion

Код:
Код:
EAC extraction logfile from 17. December 2006, 15:51 for CD
Kestrel / Kestrel

Used drive  : _NEC    CD-RW NR-9100A   Adapter: 1  ID: 0
Read mode   : Secure with NO C2, accurate stream, disable cache
Read offset correction : 685
Overread into Lead-In and Lead-Out : No

Used output format : C:\Program Files\FLAC\flac.exe   (User Defined Encoder)
                     128 kBit/s
                     Additional command line options : -V -8 -T "artist=%a" -T "title=%t" -T "album=%g" -T "date=%y" -T "tracknumber=%n" -T "genre=%m" %s

Other options      :
    Fill up missing offset samples with silence : Yes
    Delete leading and trailing silent blocks : No
    Installed external ASPI interface

Track  1
     Filename C:\Program Files\Exact Audio Copy\01 - The Acrobat.wav

     Pre-gap length  0:00:02.00

     Peak level 99.8 %
     Track quality 99.9 %
     Test CRC 3F88EB15
     Copy CRC 3F88EB15
     Copy OK

Track  2
     Filename C:\Program Files\Exact Audio Copy\02 - Wind Cloud.wav

     Pre-gap length  0:00:02.17

     Peak level 99.8 %
     Track quality 100.0 %
     Test CRC 2162AF2B
     Copy CRC 2162AF2B
     Copy OK

Track  3
     Filename C:\Program Files\Exact Audio Copy\03 - I Believe In You.wav

     Pre-gap length  0:00:03.21

     Peak level 99.8 %
     Track quality 100.0 %
     Test CRC C6FB5CD6
     Copy CRC C6FB5CD6
     Copy OK

Track  4
     Filename C:\Program Files\Exact Audio Copy\04 - Last Request.wav

     Pre-gap length  0:00:03.60

     Peak level 99.8 %
     Track quality 100.0 %
     Test CRC BBEB438F
     Copy CRC BBEB438F
     Copy OK

Track  5
     Filename C:\Program Files\Exact Audio Copy\05 - In The War.wav

     Pre-gap length  0:00:04.02

     Peak level 99.8 %
     Track quality 100.0 %
     Test CRC E7F355A3
     Copy CRC E7F355A3
     Copy OK

Track  6
     Filename C:\Program Files\Exact Audio Copy\06 - Take It Away.wav

     Pre-gap length  0:00:01.37

     Peak level 99.8 %
     Track quality 99.9 %
     Test CRC F114F561
     Copy CRC F114F561
     Copy OK

Track  7
     Filename C:\Program Files\Exact Audio Copy\07 - End Of The Affair.wav

     Pre-gap length  0:00:03.48

     Peak level 99.8 %
     Track quality 100.0 %
     Test CRC 0642815D
     Copy CRC 0642815D
     Copy OK

Track  8
     Filename C:\Program Files\Exact Audio Copy\08 - August Carol.wav

     Pre-gap length  0:00:02.40

     Peak level 99.8 %
     Track quality 100.0 %
     Test CRC 4507643D
     Copy CRC 4507643D
     Copy OK

No errors occured

End of status report
Код:
Код:
-----------------------

DON'T MODIFY THIS FILE

-----------------------

PERFORMER: auCDtect Task Manager, ver. 1.6.0 RC1 build 1.6.0.1
Copyright (c) 2008-2010 y-soft. All rights reserved
http:/y-soft.org

ANALYZER: auCDtect: CD records authenticity detector, version 0.8.2
Copyright (c) 2004 Oleg Berngardt. All rights reserved.
Copyright (c) 2004 Alexander Djourik. All rights reserved.

FILE: 08 - August Carol.flac
  Size: 53116153 Hash: 28DA80D4825253BB5AC730F843ABBA96 Accuracy: -m0
  Conclusion: CDDA 100%
  Signature: A4AB42A5E245EF6A1E31BA98593E59505BD9ED2D
FILE: 07 - End Of The Affair.flac
  Size: 31663060 Hash: C7C71A6D63028B07FA980A87B7EE301B Accuracy: -m0
  Conclusion: CDDA 100%
  Signature: 85DDE865E39E7D25EC4A40020CE78602A9BAA913
FILE: 06 - Take It Away.flac
  Size: 31406257 Hash: 08599E33A5C658014D192B993589D0FE Accuracy: -m0
  Conclusion: CDDA 100%
  Signature: 1E286DA212CFAC810CCA878B41B9F1D6C76A42CE
FILE: 05 - In The War.flac
  Size: 52628672 Hash: AC44F9D611D56736619362B7E53A18BD Accuracy: -m0
  Conclusion: CDDA 100%
  Signature: F788F37E577FAFDE642ACF8B69845B8D5A139F1C
FILE: 04 - Last Request.flac
  Size: 34701276 Hash: CFD8930E04476150FF90F76473B89BA3 Accuracy: -m0
  Conclusion: CDDA 100%
  Signature: 06F3D25152546D7DEE9A5D73B5C13545AB2D4722
FILE: 03 - I Believe In You.flac
  Size: 31955971 Hash: 75B96E6777F51B0DBBB5BD73E20EE961 Accuracy: -m0
  Conclusion: CDDA 100%
  Signature: 089BE25BE5751BF80F5BBE55972408DC89AF4B0D
FILE: 02 - Wind Cloud.flac
  Size: 29620529 Hash: BB6A0CFE368D572F901A61E2C4E7C95D Accuracy: -m0
  Conclusion: CDDA 100%
  Signature: 35E10BAAA3582814510C18054AB1F82A427682B9
FILE: 01 - The Acrobat.flac
  Size: 47554909 Hash: 9B40CEA1051122E750CB06B05B9F60F5 Accuracy: -m0
  Conclusion: CDDA 100%
  Signature: E3CA9588CF95898E6F32E699F1148099E619F031
Правила, инструкции, FAQ!!!
Торрент  Добавлен [16 мар 2014, 00:15] Скачать торрент Магнет ссылка
Скачать торрент
[ Размер 13.36 КБ / Просмотров 23 ]

Статус  
 
Размер  304.59 МБ
Приватный: Нет (DHT включён)
.torrent скачан  1
 


     Отправить личное сообщение
   
Страница 1 из 1
Показать сообщения за:  Поле сортировки  
Начать новую тему Ответить на тему


Сейчас этот форум просматривают: нет зарегистрированных пользователей и гости: 0


Вы не можете начинать темы
Вы не можете отвечать на сообщения
Вы не можете редактировать свои сообщения
Вы не можете удалять свои сообщения
Вы не можете добавлять вложения

Перейти:  
cron
cron