Начать новую тему Ответить на тему
Статистика раздачи
Размер: 272.41 МБ | Добавлен: 16 мар 2014, 00:03 | Скачали: 0
Сидеров: 1  [0 байт/сек]    Личеров: 70  [0 байт/сек]
Пред. тема | След. тема 

Автор
Сообщение

СообщениеДобавлено: 16 мар 2014, 00:03 

Ответить с цитатой 

Keith Cross & Peter Ross - Bored Civillians (1972) Remastered 2007

Жанр: Progressive Rock
Год: 1972
Страна: UK
Released: 2007/South Korea
Label: Decca/Si-Wan Records
Catalog#: SRMC 0036P
Series: Si-Wan British Rock Collection Deram/Decca
Аудио кодек: FLAC
Тип рипа: image+.cue
Битрейт аудио: lossless
Продолжительность: 00:52:18
Автор рипа: havefun6699 - оригинальный CD
Источник-релизер: mcbreg
Scans: в раздаче

Треклист:
01. The Last Ocean Rider (6:57)
02. Bored Civillians (2:34)
03. Peace In the End (3:27)
04. Story To A Friend (11:06)
05. Loving You Takes So Long (4:21)
06. Pastels (4:07)
07. The Dead Salute (3:35)
08. Bo Radley (2:28)
09. Fly Home (7:03)
Bonus Tracks
10. Can You Believe It (2:57)
11. Blind Willie Johnson (3:43)
Код:
Код:
Exact Audio Copy V0.99 prebeta 4 from 23. January 2008

Отчёт EAC об извлечении, выполненном 6. марта 2011, 23:21

Ketih Cross & Peter Ross / Bored Civillians

Дисковод: Optiarc DVD RW AD-7200A   Adapter: 0  ID: 0

Режим чтения                 : Достоверность
Использование точного потока : Да
Отключение кэша аудио        : Да
Использование указателей C2  : Нет

Коррекция смещения при чтении                     : 48
Способность читать области Lead-in и Lead-out     : Нет
Заполнение пропущенных сэмплов тишиной            : Да
Удаление блоков с тишиной в начале и конце        : Нет
При вычислениях CRC использовались нулевые сэмплы : Да
Интерфейс                                         : Встроенный Win32-интерфейс для Win NT/2000

Выходной формат          : Пользовательский кодировщик
Выбранный битрейт        : 768 kBit/s
Качество                 : Высокий
Добавление ID3-тэга      : Нет
Утилита сжатия           : C:\Program Files\Exact Audio Copy\FLAC\FLAC.EXE
Дополнительные параметры : -6 -V -T "ARTIST=%a" -T "TITLE=%t" -T "ALBUM=%g" -T "DATE=%y" -T "TRACKNUMBER=%n" -T "GENRE=%m" -T "COMMENT=%e" %s -o %d

TOC извлечённого CD

     Трек |   Старт  | Длительность | Начальный сектор | Конечный сектор
    ---------------------------------------------------------------------
       1  |  0:00.00 |    6:56.57   |           0      |      31256
       2  |  6:56.57 |    2:34.07   |       31257      |      42813
       3  |  9:30.64 |    3:27.06   |       42814      |      58344
       4  | 12:57.70 |   11:06.17   |       58345      |     108311
       5  | 24:04.12 |    4:20.38   |      108312      |     127849
       6  | 28:24.50 |    4:07.15   |      127850      |     146389
       7  | 32:31.65 |    3:35.17   |      146390      |     162531
       8  | 36:07.07 |    2:28.25   |      162532      |     173656
       9  | 38:35.32 |    7:02.65   |      173657      |     205371
      10  | 45:38.22 |    2:56.58   |      205372      |     218629
      11  | 48:35.05 |    3:43.07   |      218630      |     235361

Характеристики диапазона извлечения и сообщения об ошибках

Выбранный диапазон

     Имя файла D:\ .org\Keith Cross & Peter Ross - Bored Civilians\Ketih Cross & Peter Ross - Bored Civillians.wav

     Пиковый уровень 98.3 %
     Качество диапазона 100.0 %
     CRC копии CDA1E7B9
     Копирование... OK

Ошибок не произошло

AccurateRip: сводка

Трек  1  нет в базе данных
Трек  2  нет в базе данных
Трек  3  нет в базе данных
Трек  4  нет в базе данных
Трек  5  нет в базе данных
Трек  6  нет в базе данных
Трек  7  нет в базе данных
Трек  8  нет в базе данных
Трек  9  нет в базе данных
Трек 10  нет в базе данных
Трек 11  нет в базе данных

Ни одного трека нет в базе AccurateRip

Конец отчёта
Код:
Код:
-----------------------

DON'T MODIFY THIS FILE

-----------------------

PERFORMER: auCDtect Task Manager, ver. 1.6.0 RC1 build 1.6.0.1
Copyright (c) 2008-2010 y-soft. All rights reserved
http:/y-soft.org

ANALYZER: auCDtect: CD records authenticity detector, version 0.8.2
Copyright (c) 2004 Oleg Berngardt. All rights reserved.
Copyright (c) 2004 Alexander Djourik. All rights reserved.

FILE: Ketih Cross & Peter Ross - Bored Civillians.flac
  Size: 284168814 Hash: A7673B3B1BE0D0834C7365671357CCA5 Accuracy: -m0
  Conclusion: CDDA 100%
  Signature: 7118E45AE39C99AF42404785A0994403D9A88BB2
Код:
Код:
REM DISCID A20C420B
REM COMMENT "ExactAudioCopy v0.99pb4"
PERFORMER "Ketih Cross & Peter Ross"
TITLE "Bored Civillians"
FILE "Ketih Cross & Peter Ross - Bored Civillians.flac" WAVE
  TRACK 01 AUDIO
    TITLE "The Last Ocean Rider"
    PERFORMER "Ketih Cross & Peter Ross"
    INDEX 01 00:00:00
  TRACK 02 AUDIO
    TITLE "Bored Civillians"
    PERFORMER "Ketih Cross & Peter Ross"
    INDEX 00 06:53:47
    INDEX 01 06:56:57
  TRACK 03 AUDIO
    TITLE "Peace In the End"
    PERFORMER "Ketih Cross & Peter Ross"
    INDEX 00 09:27:57
    INDEX 01 09:30:64
  TRACK 04 AUDIO
    TITLE "Story To A Friend"
    PERFORMER "Ketih Cross & Peter Ross"
    INDEX 00 12:54:64
    INDEX 01 12:57:70
  TRACK 05 AUDIO
    TITLE "Loving You Takes So Long"
    PERFORMER "Ketih Cross & Peter Ross"
    INDEX 00 24:01:02
    INDEX 01 24:04:12
  TRACK 06 AUDIO
    TITLE "Pastels"
    PERFORMER "Ketih Cross & Peter Ross"
    INDEX 01 28:24:50
  TRACK 07 AUDIO
    TITLE "The Dead Salute"
    PERFORMER "Ketih Cross & Peter Ross"
    INDEX 00 32:28:57
    INDEX 01 32:31:65
  TRACK 08 AUDIO
    TITLE "Bo Radley"
    PERFORMER "Ketih Cross & Peter Ross"
    INDEX 00 36:04:07
    INDEX 01 36:07:07
  TRACK 09 AUDIO
    TITLE "Fly Home"
    PERFORMER "Ketih Cross & Peter Ross"
    INDEX 00 38:32:27
    INDEX 01 38:35:32
  TRACK 10 AUDIO
    TITLE "Can You Believe It"
    PERFORMER "Ketih Cross & Peter Ross"
    INDEX 00 45:35:20
    INDEX 01 45:38:22
  TRACK 11 AUDIO
    TITLE "Blind Willie Johnson"
    PERFORMER "Ketih Cross & Peter Ross"
    INDEX 00 48:32:00
    INDEX 01 48:35:05

Единственный альбом дуэта из Лондона, созданного в 1971 году гитаристом/вокалистом Keith Cross (ex- “T2”, а до этого – “Bulldog Breed”) и вокалистом/гитаристом Peter Ross (ex- “Hookfoot”, также работал с Leigh Stephens - лидер-гитаристом “Blue Cheer” и Richard Thompson). Дуэт исполнял музыку в стиле West Coast и одновременно ранних “King Crimson”. Сразу после записи этого альбома дуэт распался.

Personnel:
- Keith Cross - guitar, vocals (Bulldog Breed, T2)
- Peter Ross - guitar, vocals (Hookfoot, Leigh Stephens)
- Peter Arnesen - keyboards (Daddy Longlegs)
- Tony Carr - percussion
- Steve Chapman - drums (Junior's Eyes)
- Brian (BJ) Cole - pedal steel (Cochise)
- Sid Gardner - bass
- Jimmy Hastings - flute, saxophone, clarinet (BBC Radio Orchestra)
- Nick Lowe - bass (Brinsley Schwarz)
- Dee Murray - bass (Elton John)
- Lea Nicholson - concertina (solo)
- Billy Rankin - drums (Brinsley Schwarz)
- Tony Sharp - arrangements, conducting
- Andy Sneddon - bass (East Of Eden)
- Chrissie Stewart (Eric Christopher Stewart) - bass
- Peter Sames – producer
Правила, инструкции, FAQ!!!
Торрент  Добавлен [16 мар 2014, 00:03] Скачать торрент Магнет ссылка
Скачать торрент
[ Размер 11.86 КБ / Просмотров 23 ]

Статус  
 
Размер  272.41 МБ
Приватный: Нет (DHT включён)
.torrent скачан  0
 


     Отправить личное сообщение
   
Страница 1 из 1
Показать сообщения за:  Поле сортировки  
Начать новую тему Ответить на тему


Сейчас этот форум просматривают: нет зарегистрированных пользователей и гости: 0


Вы не можете начинать темы
Вы не можете отвечать на сообщения
Вы не можете редактировать свои сообщения
Вы не можете удалять свои сообщения
Вы не можете добавлять вложения

Перейти:  
cron