Начать новую тему Ответить на тему
Статистика раздачи
Размер: 279.68 МБ | Добавлен: 16 мар 2014, 00:39 | Скачали: 0
Сидеров: 1  [0 байт/сек]    Личеров: 0  [0 байт/сек]
Пред. тема | След. тема 

Автор
Сообщение

СообщениеДобавлено: 16 мар 2014, 00:39 

Ответить с цитатой 

Keel Her - Keel Her (2014)


Год: 2014
Жанр: Indie Rock, Alternative
Лейбл: Critical Heights
Продолжительность: 00:43:41

Кодек: FLAC
Битрейт: Lossless
Тип рипа: tracks+cue

Треклист:

01. Intro (00:49)
02. Go (02:21)
03. You Think You're so Rock and Roll (00:47)
04. In My Head (01:44)
05. Riot Girl (03:04)
06. Total Control (01:39)
07. (I Hate It) When You Look at Me (05:24)
08. Don't Look at Me (03:46)
09. I'd Be Your Slave (R.Stevie Moore Remix) (03:12)
10. Only Geeks Come Bearing Gifs (03:36)
11. Overtime (01:03)
12. Wanna F**k? (01:01)
13. Pussywhipped (02:24)
14. Women Lost in Thought (01:41)
15. Whatever (Hot Sugar Remix) (02:43)
16. Black Hole (02:53)
17. Missing Time (02:10)
18. Roswell (03:17)

Код:
Код:
X Lossless Decoder version 20131102 (145.0)

XLD extraction logfile from 2014-02-17 14:24:49 +0000

Keel Her / Keel Her

Used drive : PIONEER DVD-RW  DVRTS09 (revision Q90B)
Media type : Pressed CD

Ripper mode             : XLD Secure Ripper
Disable audio cache     : OK for the drive with a cache less than 1375KiB
Make use of C2 pointers : NO
Read offset correction  : 96
Max retry count         : 20
Gap status              : Analyzed, Appended (except HTOA)

TOC of the extracted CD
     Track |   Start  |  Length  | Start sector | End sector
    ---------------------------------------------------------
        1  | 00:00:00 | 00:49:58 |         0    |     3732
        2  | 00:49:58 | 02:21:43 |      3733    |    14350
        3  | 03:11:26 | 00:47:52 |     14351    |    17927
        4  | 03:59:03 | 01:44:10 |     17928    |    25737
        5  | 05:43:13 | 03:04:10 |     25738    |    39547
        6  | 08:47:23 | 01:39:10 |     39548    |    46982
        7  | 10:26:33 | 05:24:10 |     46983    |    71292
        8  | 15:50:43 | 03:46:01 |     71293    |    88243
        9  | 19:36:44 | 03:12:18 |     88244    |   102661
       10  | 22:48:62 | 03:36:10 |    102662    |   118871
       11  | 26:24:72 | 01:03:11 |    118872    |   123607
       12  | 27:28:08 | 01:01:71 |    123608    |   128253
       13  | 28:30:04 | 02:24:65 |    128254    |   139118
       14  | 30:54:69 | 01:41:10 |    139119    |   146703
       15  | 32:36:04 | 02:43:57 |    146704    |   158985
       16  | 35:19:61 | 02:53:64 |    158986    |   172024
       17  | 38:13:50 | 02:10:64 |    172025    |   181838
       18  | 40:24:39 | 03:17:33 |    181839    |   196646

AccurateRip Summary
    Disc not found in AccurateRip DB.

All Tracks
    Album gain               : -7.02 dB
    Peak                     : 0.962097
    Statistics
        Read error                           : 0
        Jitter error (maybe fixed)           : 0
        Retry sector count                   : 0
        Damaged sector count                 : 0

Track 01
    Filename : /Users/philimac/Music/Keel Her - Keel Her (2014) [FLAC]/01 Intro.flac
    Pre-gap length : 00:02:00

    Track gain               : -5.12 dB
    Peak                     : 0.867401
    CRC32 hash (test run)    : E8BBB9BC
    CRC32 hash               : E8BBB9BC
    CRC32 hash (skip zero)   : 0E533705
    AccurateRip v1 signature : 22D3D05C
    AccurateRip v2 signature : 4E5E6981
        ->Track not present in AccurateRip database.
    Statistics
        Read error                           : 0
        Jitter error (maybe fixed)           : 0
        Retry sector count                   : 0
        Damaged sector count                 : 0

Track 02
    Filename : /Users/philimac/Music/Keel Her - Keel Her (2014) [FLAC]/02 Go.flac

    Track gain               : -6.67 dB
    Peak                     : 0.867401
    CRC32 hash (test run)    : 9A38B1D6
    CRC32 hash               : 9A38B1D6
    CRC32 hash (skip zero)   : ECC4643F
    AccurateRip v1 signature : CAA7A7B5
    AccurateRip v2 signature : 3F411379
        ->Track not present in AccurateRip database.
    Statistics
        Read error                           : 0
        Jitter error (maybe fixed)           : 0
        Retry sector count                   : 0
        Damaged sector count                 : 0

Track 03
    Filename : /Users/philimac/Music/Keel Her - Keel Her (2014) [FLAC]/03 You Think You're so Rock and Roll.flac

    Track gain               : -6.31 dB
    Peak                     : 0.867401
    CRC32 hash (test run)    : 04D46732
    CRC32 hash               : 04D46732
    CRC32 hash (skip zero)   : D95805F6
    AccurateRip v1 signature : B6B8BA3A
    AccurateRip v2 signature : FA1897F3
        ->Track not present in AccurateRip database.
    Statistics
        Read error                           : 0
        Jitter error (maybe fixed)           : 0
        Retry sector count                   : 0
        Damaged sector count                 : 0

Track 04
    Filename : /Users/philimac/Music/Keel Her - Keel Her (2014) [FLAC]/04 In My Head.flac

    Track gain               : -7.72 dB
    Peak                     : 0.867401
    CRC32 hash (test run)    : CDC66319
    CRC32 hash               : CDC66319
    CRC32 hash (skip zero)   : A343DF73
    AccurateRip v1 signature : EB72D67A
    AccurateRip v2 signature : 67434216
        ->Track not present in AccurateRip database.
    Statistics
        Read error                           : 0
        Jitter error (maybe fixed)           : 0
        Retry sector count                   : 0
        Damaged sector count                 : 0

Track 05
    Filename : /Users/philimac/Music/Keel Her - Keel Her (2014) [FLAC]/05 Riot Girl.flac

    Track gain               : -8.35 dB
    Peak                     : 0.867401
    CRC32 hash (test run)    : A10AF430
    CRC32 hash               : A10AF430
    CRC32 hash (skip zero)   : D79211E9
    AccurateRip v1 signature : A2A9B212
    AccurateRip v2 signature : 16CC6E83
        ->Track not present in AccurateRip database.
    Statistics
        Read error                           : 0
        Jitter error (maybe fixed)           : 0
        Retry sector count                   : 0
        Damaged sector count                 : 0

Track 06
    Filename : /Users/philimac/Music/Keel Her - Keel Her (2014) [FLAC]/06 Total Control.flac

    Track gain               : -6.84 dB
    Peak                     : 0.867401
    CRC32 hash (test run)    : 3371A15B
    CRC32 hash               : 3371A15B
    CRC32 hash (skip zero)   : 35BC2CE5
    AccurateRip v1 signature : 26FB847D
    AccurateRip v2 signature : 924ED715
        ->Track not present in AccurateRip database.
    Statistics
        Read error                           : 0
        Jitter error (maybe fixed)           : 0
        Retry sector count                   : 0
        Damaged sector count                 : 0

Track 07
    Filename : /Users/philimac/Music/Keel Her - Keel Her (2014) [FLAC]/07 (I Hate It) When You Look at Me.flac

    Track gain               : -7.20 dB
    Peak                     : 0.962097
    CRC32 hash (test run)    : 8BB8FB08
    CRC32 hash               : 8BB8FB08
    CRC32 hash (skip zero)   : AB5CFBAD
    AccurateRip v1 signature : FE5DF6DE
    AccurateRip v2 signature : D1DB9439
        ->Track not present in AccurateRip database.
    Statistics
        Read error                           : 0
        Jitter error (maybe fixed)           : 0
        Retry sector count                   : 0
        Damaged sector count                 : 0

Track 08
    Filename : /Users/philimac/Music/Keel Her - Keel Her (2014) [FLAC]/08 Don't Look at Me.flac

    Track gain               : -6.13 dB
    Peak                     : 0.962097
    CRC32 hash (test run)    : 042363F8
    CRC32 hash               : 042363F8
    CRC32 hash (skip zero)   : 90A8114B
    AccurateRip v1 signature : 4E57D16C
    AccurateRip v2 signature : 28A2764E
        ->Track not present in AccurateRip database.
    Statistics
        Read error                           : 0
        Jitter error (maybe fixed)           : 0
        Retry sector count                   : 0
        Damaged sector count                 : 0

Track 09
    Filename : /Users/philimac/Music/Keel Her - Keel Her (2014) [FLAC]/09 I'd Be Your Slave (R.Stevie Moore Remix).flac

    Track gain               : -4.60 dB
    Peak                     : 0.872894
    CRC32 hash (test run)    : 2058292B
    CRC32 hash               : 2058292B
    CRC32 hash (skip zero)   : 7DFD9766
    AccurateRip v1 signature : C2DA34F7
    AccurateRip v2 signature : 6D75309E
        ->Track not present in AccurateRip database.
    Statistics
        Read error                           : 0
        Jitter error (maybe fixed)           : 0
        Retry sector count                   : 0
        Damaged sector count                 : 0

Track 10
    Filename : /Users/philimac/Music/Keel Her - Keel Her (2014) [FLAC]/10 Only Geeks Come Bearing Gifs.flac

    Track gain               : -5.64 dB
    Peak                     : 0.867401
    CRC32 hash (test run)    : 362114B3
    CRC32 hash               : 362114B3
    CRC32 hash (skip zero)   : AF672FC3
    AccurateRip v1 signature : 36D02051
    AccurateRip v2 signature : 8A18A045
        ->Track not present in AccurateRip database.
    Statistics
        Read error                           : 0
        Jitter error (maybe fixed)           : 0
        Retry sector count                   : 0
        Damaged sector count                 : 0

Track 11
    Filename : /Users/philimac/Music/Keel Her - Keel Her (2014) [FLAC]/11 Overtime.flac

    Track gain               : -3.37 dB
    Peak                     : 0.867401
    CRC32 hash (test run)    : FBC61266
    CRC32 hash               : FBC61266
    CRC32 hash (skip zero)   : 7A36AB6F
    AccurateRip v1 signature : 235FEA36
    AccurateRip v2 signature : 6B510972
        ->Track not present in AccurateRip database.
    Statistics
        Read error                           : 0
        Jitter error (maybe fixed)           : 0
        Retry sector count                   : 0
        Damaged sector count                 : 0

Track 12
    Filename : /Users/philimac/Music/Keel Her - Keel Her (2014) [FLAC]/12 Wanna [censored]?.flac

    Track gain               : -5.93 dB
    Peak                     : 0.867401
    CRC32 hash (test run)    : F4F58C09
    CRC32 hash               : F4F58C09
    CRC32 hash (skip zero)   : 5292649D
    AccurateRip v1 signature : 44988679
    AccurateRip v2 signature : 221B9756
        ->Track not present in AccurateRip database.
    Statistics
        Read error                           : 0
        Jitter error (maybe fixed)           : 0
        Retry sector count                   : 0
        Damaged sector count                 : 0

Track 13
    Filename : /Users/philimac/Music/Keel Her - Keel Her (2014) [FLAC]/13 Pussywhipped.flac

    Track gain               : -6.00 dB
    Peak                     : 0.962097
    CRC32 hash (test run)    : 90A54103
    CRC32 hash               : 90A54103
    CRC32 hash (skip zero)   : 746C8B23
    AccurateRip v1 signature : FBE5EFFA
    AccurateRip v2 signature : 75E64417
        ->Track not present in AccurateRip database.
    Statistics
        Read error                           : 0
        Jitter error (maybe fixed)           : 0
        Retry sector count                   : 0
        Damaged sector count                 : 0

Track 14
    Filename : /Users/philimac/Music/Keel Her - Keel Her (2014) [FLAC]/14 Women Lost in Thought.flac

    Track gain               : -5.20 dB
    Peak                     : 0.867401
    CRC32 hash (test run)    : 80DD7801
    CRC32 hash               : 80DD7801
    CRC32 hash (skip zero)   : 0389A279
    AccurateRip v1 signature : 89801B72
    AccurateRip v2 signature : E4130F5E
        ->Track not present in AccurateRip database.
    Statistics
        Read error                           : 0
        Jitter error (maybe fixed)           : 0
        Retry sector count                   : 0
        Damaged sector count                 : 0

Track 15
    Filename : /Users/philimac/Music/Keel Her - Keel Her (2014) [FLAC]/15 Whatever (Hot Sugar Remix).flac

    Track gain               : -5.95 dB
    Peak                     : 0.941437
    CRC32 hash (test run)    : C1E835CB
    CRC32 hash               : C1E835CB
    CRC32 hash (skip zero)   : 5CEE81FD
    AccurateRip v1 signature : FAE3D146
    AccurateRip v2 signature : 7298429B
        ->Track not present in AccurateRip database.
    Statistics
        Read error                           : 0
        Jitter error (maybe fixed)           : 0
        Retry sector count                   : 0
        Damaged sector count                 : 0

Track 16
    Filename : /Users/philimac/Music/Keel Her - Keel Her (2014) [FLAC]/16 Black Hole.flac

    Track gain               : -5.82 dB
    Peak                     : 0.867401
    CRC32 hash (test run)    : 88FB88FD
    CRC32 hash               : 88FB88FD
    CRC32 hash (skip zero)   : 4D02199B
    AccurateRip v1 signature : 5CE3E623
    AccurateRip v2 signature : A1235A4B
        ->Track not present in AccurateRip database.
    Statistics
        Read error                           : 0
        Jitter error (maybe fixed)           : 0
        Retry sector count                   : 0
        Damaged sector count                 : 0

Track 17
    Filename : /Users/philimac/Music/Keel Her - Keel Her (2014) [FLAC]/17 Missing Time.flac

    Track gain               : -4.70 dB
    Peak                     : 0.867401
    CRC32 hash (test run)    : AC00CD01
    CRC32 hash               : AC00CD01
    CRC32 hash (skip zero)   : 37143E45
    AccurateRip v1 signature : 2A87B004
    AccurateRip v2 signature : 8A4BC4BC
        ->Track not present in AccurateRip database.
    Statistics
        Read error                           : 0
        Jitter error (maybe fixed)           : 0
        Retry sector count                   : 0
        Damaged sector count                 : 0

Track 18
    Filename : /Users/philimac/Music/Keel Her - Keel Her (2014) [FLAC]/18 Roswell.flac

    Track gain               : -4.52 dB
    Peak                     : 0.867401
    CRC32 hash (test run)    : C2BCBB7D
    CRC32 hash               : C2BCBB7D
    CRC32 hash (skip zero)   : 60C52B42
    AccurateRip v1 signature : 2BCE1760
    AccurateRip v2 signature : 34367DC0
        ->Track not present in AccurateRip database.
    Statistics
        Read error                           : 0
        Jitter error (maybe fixed)           : 0
        Retry sector count                   : 0
        Damaged sector count                 : 0

No errors occurred

End of status report

-----BEGIN XLD SIGNATURE-----
EfkNed.PXTjq_B12FWw2clm.XvvipR63wygOFx6vGE9o8Tyq.0RS9mpSwsH9efWFUKjlzReb.ktNaM0YJGScu6SCZnKn.rppEvY5.SO
-----END XLD SIGNATURE-----
Код:
Код:
-----------------------

DON'T MODIFY THIS FILE

-----------------------

PERFORMER: auCDtect Task Manager, ver. 1.6.0 RC1 build 1.6.0.1
Copyright (c) 2008-2010 y-soft. All rights reserved
http:/y-soft.org

ANALYZER: auCDtect: CD records authenticity detector, version 0.8.2
Copyright (c) 2004 Oleg Berngardt. All rights reserved.
Copyright (c) 2004 Alexander Djourik. All rights reserved.

FILE: 18 - Roswell.flac
  Size: 20080215 Hash: 7EFED3290A0C3C11F8DFFA7D48B497C4 Accuracy: -m0
  Conclusion: CDDA 100%
  Signature: 5C3D27504091A822F8CD72098840EDE68E314ACF
FILE: 17 - Missing Time.flac
  Size: 12006022 Hash: DC0DBDC1C501AB479CA559497B70A765 Accuracy: -m0
  Conclusion: CDDA 76%
  Signature: F517DC3928CDBFA673F91BA25ED2AE6D8657E264
FILE: 16 - Black Hole.flac
  Size: 20860692 Hash: 08D726B336DC38948ACAB4B69FCEFB13 Accuracy: -m0
  Conclusion: CDDA 100%
  Signature: 7F34034BC31B9437C9AA20361DCB4E0649898A2B
FILE: 15 - Whatever (Hot Sugar Remix).flac
  Size: 15139516 Hash: FF5BDBEFA295B0CEF6AFB7F7A92FC513 Accuracy: -m0
  Conclusion: CDDA 100%
  Signature: 08878B3FC2AE4B79ACF25AAC718EB5EA0071A10D
FILE: 14 - Women Lost in Thought.flac
  Size: 9999920 Hash: D2465C1F48BEBB4EEC619E6FA0344CB7 Accuracy: -m0
  Conclusion: CDDA 99%
  Signature: 419FCE3AAB309383175A41D23A5561D90A342E84
FILE: 13 - Pussywhipped.flac
  Size: 18366992 Hash: F187B17BEA1F23996D4B4EFDCA99BB3D Accuracy: -m0
  Conclusion: CDDA 100%
  Signature: B7C810A0E6BB4C2A454578BCE57236FF4C9991C6
FILE: 12 - Wanna [censored].flac
  Size: 7864565 Hash: A22C4DD185C4DA35744D8D30C78A0ECF Accuracy: -m0
  Conclusion: CDDA 100%
  Signature: 2EFCBA6D194939D8927259AB29CABB72DF5A7072
FILE: 11 - Overtime.flac
  Size: 5405575 Hash: 3CDF4EDBC4E1EAE6661CCCB57E83ABA6 Accuracy: -m0
  Conclusion: CDDA 92%
  Signature: 58A4E2304D635FBA41DF6D8574202D21701EAB65
FILE: 10 - Only Geeks Come Bearing Gifs.flac
  Size: 26994700 Hash: B1AC01158FBEB38258E86F92AF9BF80C Accuracy: -m0
  Conclusion: CDDA 99%
  Signature: 602E873065F56AA9A7F64A15996F56136A3D4726
FILE: 09 - I'd Be Your Slave (R.Stevie Moore Remix).flac
  Size: 20742924 Hash: 5D3345D44C2344FE3617DDFF1DADB2A9 Accuracy: -m0
  Conclusion: MPEG 95%
  Signature: 765578B0B81B2A2AC8256CAADAB37EE911FC52D4
FILE: 08 - Don't Look at Me.flac
  Size: 24898740 Hash: B74883A4A3D7ECF780DE62DCA31B0216 Accuracy: -m0
  Conclusion: CDDA 100%
  Signature: 9A175A0966EFA32EA297A74EB17ED917B40BD7FF
FILE: 07 - (I Hate It) When You Look at Me.flac
  Size: 37770331 Hash: C669B45F388654BFCA0B7F5B4BE5278B Accuracy: -m0
  Conclusion: CDDA 100%
  Signature: 1C42443585430BA79E687F1467989690CC41A79F
FILE: 06 - Total Control.flac
  Size: 12801324 Hash: A12D5FD8C42456A23274CFA821485D4D Accuracy: -m0
  Conclusion: CDDA 100%
  Signature: 3DCEEF497B56F021438BA6FF038322F2C93B08B1
FILE: 05 - Riot Girl.flac
  Size: 23272945 Hash: 49B3CCC038FB50C6F7E7756227E7CEE5 Accuracy: -m0
  Conclusion: CDDA 100%
  Signature: E0BEDC82C4DC51A974FF32DC014BD0B9E5D328B1
FILE: 04 - In My Head.flac
  Size: 12668864 Hash: B01B0DA8DEF32610840A4092457E1A3F Accuracy: -m0
  Conclusion: CDDA 100%
  Signature: 69B2E12AD73E8A54BA36D9EF715EAC35C21AD38F
FILE: 03 - You Think You're so Rock and Roll.flac
  Size: 5455414 Hash: 35D5CA2C709B2E0035588637548F4232 Accuracy: -m0
  Conclusion: CDDA 100%
  Signature: A0B36AE05DC181AE4BA95A71A65DF3960B4BF04E
FILE: 02 - Go.flac
  Size: 15848274 Hash: 149F2D8ADB57A4E424086B88028C80EB Accuracy: -m0
  Conclusion: CDDA 100%
  Signature: 401A3EAAE6B02187B64BA6B0147D7FC8C16D2C44
FILE: 01 - Intro.flac
  Size: 2946639 Hash: EACECF2AB490D3041135CD25E9B87EA3 Accuracy: -m0
  Conclusion: MPEG 100%
  Signature: AE729A735564146528328CD63719038BFE0EDFE6
Код:
Код:
TITLE "Keel Her"
PERFORMER "Keel Her"
REM GENRE "Rock"
REM DATE "2014"
REM DISCNUMBER 1
REM TOTALDISCS 1
REM DISCID F00A3D12
REM REPLAYGAIN_ALBUM_GAIN -7.02 dB
REM REPLAYGAIN_ALBUM_PEAK 0.962097
FILE "01 - Intro.flac" WAVE
  TRACK 01 AUDIO
    TITLE "Intro"
    SONGWRITER "Keel Her"
    REM REPLAYGAIN_TRACK_GAIN -5.12 dB
    REM REPLAYGAIN_TRACK_PEAK 0.867401
    INDEX 01 00:00:00
FILE "02 - Go.flac" WAVE
  TRACK 02 AUDIO
    TITLE "Go"
    SONGWRITER "Keel Her"
    REM REPLAYGAIN_TRACK_GAIN -6.67 dB
    REM REPLAYGAIN_TRACK_PEAK 0.867401
    INDEX 01 00:00:00
FILE "03 - You Think You're so Rock and Roll.flac" WAVE
  TRACK 03 AUDIO
    TITLE "You Think You're so Rock and Roll"
    SONGWRITER "Keel Her"
    REM REPLAYGAIN_TRACK_GAIN -6.31 dB
    REM REPLAYGAIN_TRACK_PEAK 0.867401
    INDEX 01 00:00:00
FILE "04 - In My Head.flac" WAVE
  TRACK 04 AUDIO
    TITLE "In My Head"
    SONGWRITER "Keel Her"
    REM REPLAYGAIN_TRACK_GAIN -7.72 dB
    REM REPLAYGAIN_TRACK_PEAK 0.867401
    INDEX 01 00:00:00
FILE "05 - Riot Girl.flac" WAVE
  TRACK 05 AUDIO
    TITLE "Riot Girl"
    SONGWRITER "Keel Her"
    REM REPLAYGAIN_TRACK_GAIN -8.35 dB
    REM REPLAYGAIN_TRACK_PEAK 0.867401
    INDEX 01 00:00:00
FILE "06 - Total Control.flac" WAVE
  TRACK 06 AUDIO
    TITLE "Total Control"
    SONGWRITER "Keel Her"
    REM REPLAYGAIN_TRACK_GAIN -6.84 dB
    REM REPLAYGAIN_TRACK_PEAK 0.867401
    INDEX 01 00:00:00
FILE "07 - (I Hate It) When You Look at Me.flac" WAVE
  TRACK 07 AUDIO
    TITLE "(I Hate It) When You Look at Me"
    SONGWRITER "Keel Her"
    REM REPLAYGAIN_TRACK_GAIN -7.20 dB
    REM REPLAYGAIN_TRACK_PEAK 0.962097
    INDEX 01 00:00:00
FILE "08 - Don't Look at Me.flac" WAVE
  TRACK 08 AUDIO
    TITLE "Don't Look at Me"
    SONGWRITER "Keel Her"
    REM REPLAYGAIN_TRACK_GAIN -6.13 dB
    REM REPLAYGAIN_TRACK_PEAK 0.962097
    INDEX 01 00:00:00
FILE "09 - I'd Be Your Slave (R.Stevie Moore Remix).flac" WAVE
  TRACK 09 AUDIO
    TITLE "I'd Be Your Slave (R.Stevie Moore Remix)"
    SONGWRITER "Keel Her"
    REM REPLAYGAIN_TRACK_GAIN -4.60 dB
    REM REPLAYGAIN_TRACK_PEAK 0.872894
    INDEX 01 00:00:00
FILE "10 - Only Geeks Come Bearing Gifs.flac" WAVE
  TRACK 10 AUDIO
    TITLE "Only Geeks Come Bearing Gifs"
    SONGWRITER "Keel Her"
    REM REPLAYGAIN_TRACK_GAIN -5.64 dB
    REM REPLAYGAIN_TRACK_PEAK 0.867401
    INDEX 01 00:00:00
FILE "11 - Overtime.flac" WAVE
  TRACK 11 AUDIO
    TITLE "Overtime"
    SONGWRITER "Keel Her"
    REM REPLAYGAIN_TRACK_GAIN -3.37 dB
    REM REPLAYGAIN_TRACK_PEAK 0.867401
    INDEX 01 00:00:00
FILE "12 - Wanna [censored].flac" WAVE
  TRACK 12 AUDIO
    TITLE "Wanna [censored]?"
    SONGWRITER "Keel Her"
    REM REPLAYGAIN_TRACK_GAIN -5.93 dB
    REM REPLAYGAIN_TRACK_PEAK 0.867401
    INDEX 01 00:00:00
FILE "13 - Pussywhipped.flac" WAVE
  TRACK 13 AUDIO
    TITLE "Pussywhipped"
    SONGWRITER "Keel Her"
    REM REPLAYGAIN_TRACK_GAIN -6.00 dB
    REM REPLAYGAIN_TRACK_PEAK 0.962097
    INDEX 01 00:00:00
FILE "14 - Women Lost in Thought.flac" WAVE
  TRACK 14 AUDIO
    TITLE "Women Lost in Thought"
    SONGWRITER "Keel Her"
    REM REPLAYGAIN_TRACK_GAIN -5.20 dB
    REM REPLAYGAIN_TRACK_PEAK 0.867401
    INDEX 01 00:00:00
FILE "15 - Whatever (Hot Sugar Remix).flac" WAVE
  TRACK 15 AUDIO
    TITLE "Whatever (Hot Sugar Remix)"
    SONGWRITER "Keel Her"
    REM REPLAYGAIN_TRACK_GAIN -5.95 dB
    REM REPLAYGAIN_TRACK_PEAK 0.941437
    INDEX 01 00:00:00
FILE "16 - Black Hole.flac" WAVE
  TRACK 16 AUDIO
    TITLE "Black Hole"
    SONGWRITER "Keel Her"
    REM REPLAYGAIN_TRACK_GAIN -5.82 dB
    REM REPLAYGAIN_TRACK_PEAK 0.867401
    INDEX 01 00:00:00
FILE "17 - Missing Time.flac" WAVE
  TRACK 17 AUDIO
    TITLE "Missing Time"
    SONGWRITER "Keel Her"
    REM REPLAYGAIN_TRACK_GAIN -4.70 dB
    REM REPLAYGAIN_TRACK_PEAK 0.867401
    INDEX 01 00:00:00
FILE "18 - Roswell.flac" WAVE
  TRACK 18 AUDIO
    TITLE "Roswell"
    SONGWRITER "Keel Her"
    REM REPLAYGAIN_TRACK_GAIN -4.52 dB
    REM REPLAYGAIN_TRACK_PEAK 0.867401
    INDEX 01 00:00:00
Правила, инструкции, FAQ!!!
Торрент  Добавлен [16 мар 2014, 00:39] Скачать торрент Магнет ссылка
Скачать торрент
[ Размер 12.79 КБ / Просмотров 26 ]

Статус  
 
Размер  279.68 МБ
Приватный: Нет (DHT включён)
.torrent скачан  0
 


     Отправить личное сообщение
   
Страница 1 из 1
Показать сообщения за:  Поле сортировки  
Начать новую тему Ответить на тему


Сейчас этот форум просматривают: нет зарегистрированных пользователей и гости: 0


Вы не можете начинать темы
Вы не можете отвечать на сообщения
Вы не можете редактировать свои сообщения
Вы не можете удалять свои сообщения
Вы не можете добавлять вложения

Перейти:  
cron
cron