Начать новую тему Ответить на тему
Статистика раздачи
Размер: 426.61 МБ | Добавлен: 16 мар 2014, 00:15 | Скачали: 1
Сидеров: 1  [0 байт/сек]    Личеров: 0  [0 байт/сек]
Пред. тема | След. тема 

Автор
Сообщение

СообщениеДобавлено: 16 мар 2014, 00:15 

Ответить с цитатой 

Kak - Kak-Ola (1968) Released 1999

Жанр: Rock/Psychedelic Rock
Год: 1968
Страна: US
Released: 1999/UK
Label: Big Beat Records
Catalog#: CDWIKD 187
Аудио кодек: FLAC
Тип рипа: tracks+.cue
Битрейт аудио: lossless
Продолжительность: 01:19:31
Источник-релизер: mcbreg
Scans: в раздаче
Треклист:
01. Hco 97658 (1:40)
02. Everything's Changing (4:07)
03. Electric Sailor (3:08)
04. Disbelievin' (4:00)
05. I've Got Time (3:41)
06. Flowing By (3:58)
07. Bryte 'N' Clear Day (3:47)
08. Trieulogy (8:12)
a). Golgotha (Gary Lee Yoder)
b). Mirage (Gary Lee Yoder, Gary Grelecki)
c). Rain (Gary Lee Yoder, Gary Grelecki)
09. Lemonaide Kid (5:56)
Bonuses:
10. Rain (Single Version) (2:06)
11. Everything's Changing (Previously Unissued Acoustic Demo) (2:54)
12. I've Got Time (Previously Unissued Acoustic Demo) (2:06)
13. Medley:Bye Bye / Easy Jack (Previously Unissued) (4:14)
14. Bryte 'N' Clear Day (Previously Unissued Acoustic Live Version) (6:10)
15. Medley:Mirage / Rain (Previously Unissued Acoustic Live Version) (5:53)
Gary Lee Yoder:
16. When Love Comes In (Previously Unissued) (2:50)
17. I Miss You (Previously Unissued) (3:59)
18. Lonely People Blues (Previously Unissued) (4:16)
19. Flight From The East (4:13)
20. Good Time Music (2:20)


На этом CD собраны записи калифорнийской (из городка Davis) группы, позднее перебравшейся в Сан-Франциско. А именно - их единственный лонгплей Kak (1968), сингл и демо-версии. Также добавлены 5 сольных песен главного автора группы Gary Lee Yoder, позднее присоединившегося к Blue Cheer... Калифорнийский эйсид-рок.

Personnel:
- Dehner C.Patten - lead guitar, vocals
- Gary Lee Yoder - lead vocals, rhythm guitar, acoutic guitar
- Joseph D.Damrell - bass, sitar, tambourine, vocals
- Christopher A.Lockheed - drums, tabla, harpsichord, maracas, vocals
+
- Gary Grelecki - producer (01-10)
- Milan Melvin - producer (19-20)

Код:
Код:
Exact Audio Copy V0.99 prebeta 4 from 23. January 2008

EAC extraction logfile from 12. May 2010, 15:49

Kak / Kak-Ola

Used drive  : PLEXTOR DVDR   PX-750A   Adapter: 7  ID: 0

Read mode               : Secure
Utilize accurate stream : Yes
Defeat audio cache      : Yes
Make use of C2 pointers : No

Read offset correction                      : 102
Overread into Lead-In and Lead-Out          : No
Fill up missing offset samples with silence : Yes
Delete leading and trailing silent blocks   : No
Null samples used in CRC calculations       : Yes
Used interface                              : Native Win32 interface for Win NT & 2000
Gap handling                                : Appended to previous track

Used output format              : User Defined Encoder
Selected bitrate                : 1024 kBit/s
Quality                         : High
Add ID3 tag                     : No
Command line compressor         : C:\Program Files\FLAC\flac.exe
Additional command line options : -V -8 -T "artist=%a" -T "title=%t" -T "album=%g" -T "date=%y" -T "tracknumber=%n" -T "genre=%m" %s

TOC of the extracted CD

     Track |   Start  |  Length  | Start sector | End sector
    ---------------------------------------------------------
        1  |  0:00.00 |  1:39.63 |         0    |     7487
        2  |  1:39.63 |  4:07.23 |      7488    |    26035
        3  |  5:47.11 |  3:08.19 |     26036    |    40154
        4  |  8:55.30 |  3:59.64 |     40155    |    58143
        5  | 12:55.19 |  3:40.58 |     58144    |    74701
        6  | 16:36.02 |  3:58.19 |     74702    |    92570
        7  | 20:34.21 |  3:47.06 |     92571    |   109601
        8  | 24:21.27 |  8:12.31 |    109602    |   146532
        9  | 32:33.58 |  5:55.41 |    146533    |   173198
       10  | 38:29.24 |  2:06.36 |    173199    |   182684
       11  | 40:35.60 |  2:54.19 |    182685    |   195753
       12  | 43:30.04 |  2:06.17 |    195754    |   205220
       13  | 45:36.21 |  4:13.46 |    205221    |   224241
       14  | 49:49.67 |  6:09.44 |    224242    |   251960
       15  | 55:59.36 |  5:53.22 |    251961    |   278457
       16  | 61:52.58 |  2:50.18 |    278458    |   291225
       17  | 64:43.01 |  3:59.18 |    291226    |   309168
       18  | 68:42.19 |  4:15.71 |    309169    |   328364
       19  | 72:58.15 |  4:13.31 |    328365    |   347370
       20  | 77:11.46 |  2:20.00 |    347371    |   357870

Track  1

     Filename c:\Torrent\FLAC\Kak\Kak-Ola\01 - Hco 97658.wav

     Pre-gap length  0:00:02.00

     Peak level 100.0 %
     Track quality 100.0 %
     Test CRC 63575300
     Copy CRC 63575300
     Copy OK

Track  2

     Filename c:\Torrent\FLAC\Kak\Kak-Ola\02 - Everything's Changing.wav

     Pre-gap length  0:00:03.24

     Peak level 100.0 %
     Track quality 100.0 %
     Test CRC 171ABAA0
     Copy CRC 171ABAA0
     Copy OK

Track  3

     Filename c:\Torrent\FLAC\Kak\Kak-Ola\03 - Electric Sailor.wav

     Pre-gap length  0:00:03.52

     Peak level 100.0 %
     Track quality 100.0 %
     Test CRC DBED9171
     Copy CRC DBED9171
     Copy OK

Track  4

     Filename c:\Torrent\FLAC\Kak\Kak-Ola\04 - Disbelievin'.wav

     Pre-gap length  0:00:03.12

     Peak level 100.0 %
     Track quality 100.0 %
     Test CRC 0B6233C5
     Copy CRC 0B6233C5
     Copy OK

Track  5

     Filename c:\Torrent\FLAC\Kak\Kak-Ola\05 - I've Got Time.wav

     Pre-gap length  0:00:02.98

     Peak level 100.0 %
     Track quality 100.0 %
     Test CRC BAEA73F4
     Copy CRC BAEA73F4
     Copy OK

Track  6

     Filename c:\Torrent\FLAC\Kak\Kak-Ola\06 - Flowing By.wav

     Pre-gap length  0:00:03.08

     Peak level 76.8 %
     Track quality 100.0 %
     Test CRC F2BC0431
     Copy CRC F2BC0431
     Copy OK

Track  7

     Filename c:\Torrent\FLAC\Kak\Kak-Ola\07 - Bryte 'N' Clear Day.wav

     Pre-gap length  0:00:03.26

     Peak level 100.0 %
     Track quality 100.0 %
     Test CRC 2AB7DEBE
     Copy CRC 2AB7DEBE
     Copy OK

Track  8

     Filename c:\Torrent\FLAC\Kak\Kak-Ola\08 - Trieulogy.wav

     Pre-gap length  0:00:03.32

     Peak level 100.0 %
     Track quality 100.0 %
     Test CRC C2CA5E5D
     Copy CRC C2CA5E5D
     Copy OK

Track  9

     Filename c:\Torrent\FLAC\Kak\Kak-Ola\09 - Lemonaide Kid.wav

     Pre-gap length  0:00:01.69

     Peak level 100.0 %
     Track quality 100.0 %
     Test CRC AA2D20C7
     Copy CRC AA2D20C7
     Copy OK

Track 10

     Filename c:\Torrent\FLAC\Kak\Kak-Ola\10 - Rain (Single Version).wav

     Pre-gap length  0:00:02.54

     Peak level 96.6 %
     Track quality 99.9 %
     Test CRC C8758446
     Copy CRC C8758446
     Copy OK

Track 11

     Filename c:\Torrent\FLAC\Kak\Kak-Ola\11 - Everything's Changing (Previously Unissued Acoustic Demo).wav

     Pre-gap length  0:00:06.09

     Peak level 96.0 %
     Track quality 100.0 %
     Test CRC 6FE5ADCB
     Copy CRC 6FE5ADCB
     Copy OK

Track 12

     Filename c:\Torrent\FLAC\Kak\Kak-Ola\12 - I've Got Time (Previously Unissued Acoustic Demo).wav

     Pre-gap length  0:00:03.00

     Peak level 81.9 %
     Track quality 100.0 %
     Test CRC A257E922
     Copy CRC A257E922
     Copy OK

Track 13

     Filename c:\Torrent\FLAC\Kak\Kak-Ola\13 - Medley-Bye Bye , Easy Jack (Previously Unissued).wav

     Pre-gap length  0:00:03.18

     Peak level 100.0 %
     Track quality 100.0 %
     Test CRC 8A4D6548
     Copy CRC 8A4D6548
     Copy OK

Track 14

     Filename c:\Torrent\FLAC\Kak\Kak-Ola\14 - Bryte 'N' Clear Day (Previously Unissued Acoustic Live Version).wav

     Pre-gap length  0:00:02.66

     Peak level 84.0 %
     Track quality 99.9 %
     Test CRC E901D672
     Copy CRC E901D672
     Copy OK

Track 15

     Filename c:\Torrent\FLAC\Kak\Kak-Ola\15 - Medley-Mirage , Rain (Previously Unissued Acoustic Live Version).wav

     Pre-gap length  0:00:02.80

     Peak level 100.0 %
     Track quality 99.9 %
     Test CRC CAC17AA0
     Copy CRC CAC17AA0
     Copy OK

Track 16

     Filename c:\Torrent\FLAC\Kak\Kak-Ola\16 - When Love Comes In (Previously Unissued).wav

     Pre-gap length  0:00:03.05

     Peak level 100.0 %
     Track quality 100.0 %
     Test CRC 438A06BB
     Copy CRC 438A06BB
     Copy OK

Track 17

     Filename c:\Torrent\FLAC\Kak\Kak-Ola\17 - I Miss You (Previously Unissued).wav

     Pre-gap length  0:00:02.84

     Peak level 100.0 %
     Track quality 100.0 %
     Test CRC E7C4F382
     Copy CRC E7C4F382
     Copy OK

Track 18

     Filename c:\Torrent\FLAC\Kak\Kak-Ola\18 - Lonely People Blues (Previously Unissued).wav

     Pre-gap length  0:00:03.04

     Peak level 100.0 %
     Track quality 100.0 %
     Test CRC C9EC93C0
     Copy CRC C9EC93C0
     Copy OK

Track 19

     Filename c:\Torrent\FLAC\Kak\Kak-Ola\19 - Flight From The East.wav

     Pre-gap length  0:00:03.12

     Peak level 99.0 %
     Track quality 100.0 %
     Test CRC 0D9F959F
     Copy CRC 0D9F959F
     Copy OK

Track 20

     Filename c:\Torrent\FLAC\Kak\Kak-Ola\20 - Good Time Music.wav

     Pre-gap length  0:00:03.10

     Peak level 100.0 %
     Track quality 100.0 %
     Test CRC 8B8D3305
     Copy CRC 8B8D3305
     Copy OK

No errors occurred

End of status report
Код:
Код:
-----------------------

DON'T MODIFY THIS FILE

-----------------------

PERFORMER: auCDtect Task Manager, ver. 1.6.0 RC1 build 1.6.0.1
Copyright (c) 2008-2010 y-soft. All rights reserved
http:/y-soft.org

ANALYZER: auCDtect: CD records authenticity detector, version 0.8.2
Copyright (c) 2004 Oleg Berngardt. All rights reserved.
Copyright (c) 2004 Alexander Djourik. All rights reserved.

FILE: 20 - Good Time Music.flac
  Size: 8857451 Hash: D2A214715A672CB31D0E712F41953980 Accuracy: -m0
  Conclusion: CDDA 99%
  Signature: 0A34FB0F6AD72D96606326E8B9693F9E3A15D321
FILE: 19 - Flight From The East.flac
  Size: 16303020 Hash: 32E8CCAB9F690278BDD4C3ED598350F5 Accuracy: -m0
  Conclusion: CDDA 100%
  Signature: 1C2E9221EF48E63CF9C323D87284765C3D54588C
FILE: 18 - Lonely People Blues (Previously Unissued).flac
  Size: 15775013 Hash: 90C5CE3B8693C2640B1598660CFCFB8D Accuracy: -m0
  Conclusion: CDDA 100%
  Signature: 3DD8F8ECF819ECCF830CE2B9C3CA47B708422340
FILE: 17 - I Miss You (Previously Unissued).flac
  Size: 13634622 Hash: 30F568B6FA08CF9A567F778A4BEE4225 Accuracy: -m0
  Conclusion: CDDA 100%
  Signature: 854CC5614157D6D487E18A7EB3AB4FEFDF2A4F92
FILE: 16 - When Love Comes In (Previously Unissued).flac
  Size: 10340869 Hash: 71B5BF2D0C7155E0A428A3D4A1FEFBFF Accuracy: -m0
  Conclusion: CDDA 100%
  Signature: CD681E3C797A4B643FA36005DDEFDE789CD4F70A
FILE: 15 - Medley-Mirage , Rain (Previously Unissued Acoustic Live Version).flac
  Size: 32453812 Hash: 45CC329A3449534E9707390F6DB76DE3 Accuracy: -m0
  Conclusion: CDDA 100%
  Signature: 13FCE6E5DE0B43E613033E8C73F730F9D89C4EF0
FILE: 14 - Bryte 'N' Clear Day (Previously Unissued Acoustic Live Version).flac
  Size: 30517536 Hash: A7EFADE7633A2FCC59C65C799041E78B Accuracy: -m0
  Conclusion: CDDA 100%
  Signature: 1BD6BE3D7A55402820207EDBDC5ED91DAF1E1381
FILE: 13 - Medley-Bye Bye , Easy Jack (Previously Unissued).flac
  Size: 23303033 Hash: 02101EE13F411824A5474D666210DB73 Accuracy: -m0
  Conclusion: CDDA 100%
  Signature: 870A7321819071D3C78A13E6699381793CD86B02
FILE: 12 - I've Got Time (Previously Unissued Acoustic Demo).flac
  Size: 10396612 Hash: 6C64451719B2FB1CDBA872B64E67E31C Accuracy: -m0
  Conclusion: CDDA 100%
  Signature: 5D4E7B55D9E5539028F037E53751B1C99BB4A42C
FILE: 11 - Everything's Changing (Previously Unissued Acoustic Demo).flac
  Size: 17068373 Hash: 6D971F809742F5BDB229768F69286AF9 Accuracy: -m0
  Conclusion: CDDA 100%
  Signature: 21E31FEB578070A3B149C3C091D6F531C55274F0
FILE: 10 - Rain (Single Version).flac
  Size: 8020175 Hash: A61BA275E217952951462BEA6D49F92F Accuracy: -m0
  Conclusion: CDDA 100%
  Signature: 6F887181B65780A656B82530523F5CA7AE5BF1EA
FILE: 09 - Lemonaide Kid.flac
  Size: 33599830 Hash: AE14303544D85FD7559574C4A621F976 Accuracy: -m0
  Conclusion: CDDA 100%
  Signature: E00FC13415F2CA285B4418D0BB2A10072BE9594E
FILE: 08 - Trieulogy.flac
  Size: 57117846 Hash: 8F98A12D7821CE00BE6138C1E53E3F8E Accuracy: -m0
  Conclusion: CDDA 100%
  Signature: 90114A29897669EF1D6564E4FD6605DBAE885D0E
FILE: 07 - Bryte 'N' Clear Day.flac
  Size: 26475052 Hash: 42DFF0167DAA2D2814FD1E80FC1F5D99 Accuracy: -m0
  Conclusion: CDDA 100%
  Signature: 87E2303007C6B073EEE31361E83C92F2766AC67A
FILE: 06 - Flowing By.flac
  Size: 23299011 Hash: 6CE02314AC833D5106BAFCE05E08EF30 Accuracy: -m0
  Conclusion: CDDA 100%
  Signature: EF6B41363801027A37A5999EE677328BD8C962CF
FILE: 05 - I've Got Time.flac
  Size: 24477119 Hash: 6E6271F8E6FBD2C64B9CC82BE0DC9E10 Accuracy: -m0
  Conclusion: CDDA 100%
  Signature: C653C09453BF3B67F128F8FCEDB263187CEED5C9
FILE: 04 - Disbelievin'.flac
  Size: 27552083 Hash: 6EAD5AC0B8BEE814AA3BCA2F45FDC6A0 Accuracy: -m0
  Conclusion: CDDA 100%
  Signature: 4BB75D56C5A053431BE183C34D54F6C421E9828C
FILE: 03 - Electric Sailor.flac
  Size: 21305118 Hash: 262578E380206AA129BA67A22A5BB18D Accuracy: -m0
  Conclusion: CDDA 100%
  Signature: FA014F3B8E5E73E60DD9E1D59E5DF925666BE3CB
FILE: 02 - Everything's Changing.flac
  Size: 28830958 Hash: 2076444FE39666749ACB9BD966DA357F Accuracy: -m0
  Conclusion: CDDA 99%
  Signature: 75DC2CA78A80940768EBCEF0F7BC0B03DC3024AD
FILE: 01 - Hco 97658.flac
  Size: 10518167 Hash: 49DF90E4B56714583755CD09CCCAE2E9 Accuracy: -m0
  Conclusion: CDDA 100%
  Signature: F7D50D40A30833B9F4242212831AB5EA7E869C01
Код:
Код:
REM GENRE Rock
REM DATE 1969
REM DISCID 2A12A314
REM COMMENT "ExactAudioCopy v0.99pb4"
FILE "Kak\Kak-Ola\01 - Hco 97658.wav" WAVE
  TRACK 01 AUDIO
    INDEX 01 00:00:00
  TRACK 02 AUDIO
    INDEX 00 01:36:45
FILE "Kak\Kak-Ola\02 - Everything's Changing.wav" WAVE
    INDEX 01 00:00:00
  TRACK 03 AUDIO
    INDEX 00 04:03:59
FILE "Kak\Kak-Ola\03 - Electric Sailor.wav" WAVE
    INDEX 01 00:00:00
  TRACK 04 AUDIO
    INDEX 00 03:05:10
FILE "Kak\Kak-Ola\04 - Disbelievin'.wav" WAVE
    INDEX 01 00:00:00
  TRACK 05 AUDIO
    INDEX 00 03:56:65
FILE "Kak\Kak-Ola\05 - I've Got Time.wav" WAVE
    INDEX 01 00:00:00
  TRACK 06 AUDIO
    INDEX 00 03:37:52
FILE "Kak\Kak-Ola\06 - Flowing By.wav" WAVE
    INDEX 01 00:00:00
  TRACK 07 AUDIO
    INDEX 00 03:54:74
FILE "Kak\Kak-Ola\07 - Bryte 'N' Clear Day.wav" WAVE
    INDEX 01 00:00:00
  TRACK 08 AUDIO
    INDEX 00 03:43:57
FILE "Kak\Kak-Ola\08 - Trieulogy.wav" WAVE
    INDEX 01 00:00:00
  TRACK 09 AUDIO
    INDEX 00 08:10:54
FILE "Kak\Kak-Ola\09 - Lemonaide Kid.wav" WAVE
    INDEX 01 00:00:00
  TRACK 10 AUDIO
    INDEX 00 05:53:00
FILE "Kak\Kak-Ola\10 - Rain (Single Version).wav" WAVE
    INDEX 01 00:00:00
  TRACK 11 AUDIO
    INDEX 00 02:00:29
FILE "Kak\Kak-Ola\11 - Everything's Changing (Previously Unissued Acoustic Demo).wav" WAVE
    INDEX 01 00:00:00
  TRACK 12 AUDIO
    INDEX 00 02:51:19
FILE "Kak\Kak-Ola\12 - I've Got Time (Previously Unissued Acoustic Demo).wav" WAVE
    INDEX 01 00:00:00
  TRACK 13 AUDIO
    INDEX 00 02:03:03
FILE "Kak\Kak-Ola\13 - Medley-Bye Bye , Easy Jack (Previously Unissued).wav" WAVE
    INDEX 01 00:00:00
  TRACK 14 AUDIO
    INDEX 00 04:10:71
FILE "Kak\Kak-Ola\14 - Bryte 'N' Clear Day (Previously Unissued Acoustic Live Version).wav" WAVE
    INDEX 01 00:00:00
  TRACK 15 AUDIO
    INDEX 00 06:06:59
FILE "Kak\Kak-Ola\15 - Medley-Mirage , Rain (Previously Unissued Acoustic Live Version).wav" WAVE
    INDEX 01 00:00:00
  TRACK 16 AUDIO
    INDEX 00 05:50:18
FILE "Kak\Kak-Ola\16 - When Love Comes In (Previously Unissued).wav" WAVE
    INDEX 01 00:00:00
  TRACK 17 AUDIO
    INDEX 00 02:47:30
FILE "Kak\Kak-Ola\17 - I Miss You (Previously Unissued).wav" WAVE
    INDEX 01 00:00:00
  TRACK 18 AUDIO
    INDEX 00 03:56:15
FILE "Kak\Kak-Ola\18 - Lonely People Blues (Previously Unissued).wav" WAVE
    INDEX 01 00:00:00
  TRACK 19 AUDIO
    INDEX 00 04:12:62
FILE "Kak\Kak-Ola\19 - Flight From The East.wav" WAVE
    INDEX 01 00:00:00
  TRACK 20 AUDIO
    INDEX 00 04:10:23
FILE "Kak\Kak-Ola\20 - Good Time Music.wav" WAVE
    INDEX 01 00:00:00
Правила, инструкции, FAQ!!!
Торрент  Добавлен [16 мар 2014, 00:15] Скачать торрент Магнет ссылка
Скачать торрент
[ Размер 19.55 КБ / Просмотров 15 ]

Статус  
 
Размер  426.61 МБ
Приватный: Нет (DHT включён)
.torrent скачан  1
 


     Отправить личное сообщение
   
Страница 1 из 1
Показать сообщения за:  Поле сортировки  
Начать новую тему Ответить на тему


Сейчас этот форум просматривают: нет зарегистрированных пользователей и гости: 0


Вы не можете начинать темы
Вы не можете отвечать на сообщения
Вы не можете редактировать свои сообщения
Вы не можете удалять свои сообщения
Вы не можете добавлять вложения

Перейти:  
cron
cron