Начать новую тему Ответить на тему
Статистика раздачи
Размер: 402.89 МБ | Добавлен: 16 мар 2014, 00:04 | Скачали: 0
Сидеров: 0  [0 байт/сек]    Личеров: 0  [0 байт/сек]
Пред. тема | След. тема 

Автор
Сообщение

СообщениеДобавлено: 16 мар 2014, 00:04 

Ответить с цитатой 

Judy Dyble - Talking With Strangers (2009)

Жанр: Folk Rock, Psychedelic Rock, Prog Rock
Год: 2009
Страна: UK
Released: 2009/UK
Label: Brilliant/FiXiT Records
Catalog#: FXTRCD113
Аудио кодек: WavPack
Тип рипа: image+.cue
Битрейт аудио: lossless
Продолжительность: 00:42:22
Источник-релизер: latzi
Scans: в раздаче
Треклист:
01. Never Knowing (1:42)
02. Jazzbirds (3:07)
03. C'est La Vie (4:18)
04. Talking With Strangers (3:26)
05. Dreamtime (4:21)
06. Grey October Day (6:08)
07. Harp Song (19:20)
#777
Возвращение на сцену после долгого отсутствия, которое продлилось целых тридцать лет, не могло не взорвать накопившиеся чувства Judy Dyble. Несмотря на то, что именно она была первой женственной ноткой в истории Fairport Convention, ее часто превращали в тень по сравнению с Sandy Denny. Теплое веяние воспоминаний приютилось в сердце Джуди благодаря Trader Horne, но ее дуэт с Джеки Маколи оставил после себя только единственную пластинку Morning Way. Конечно же, музыкальной Душе не судилось превратиться в пыль, куда бы не разворачивала свои колеса странная карета Жизни. Джуди взошла на давно брошенный сладкогласный пьедестал в 2004 году, сразу же приступив к новому творчеству. Первыми музыкальными очерками стали альбомы Enchanted Garden (2004), Spindle (2006) и The Whorl (2006), но создавалось такое впечатление, что это все маленький обман перед столкновением с настоящей исповедью. Именно релиз Talking With Strangers (2009) неожиданно покорил своей сказочностью и простотой. Казалось, что на протяжении своего творческого пути эта прелестная Леди то и делала, что искала укромных бесед с незнакомцами или странниками, покинутыми на произвол Судьбы, слушала истории джазовых птиц, тщательно скрывая свою печаль от посторонних глаз... Хрупкая прозрачность вокала Judy Dyble тонко вливается в атмосферу прогрессивного рока, фолка, транса, эмбиента, Кентенберийской сцены и пост-рока. Можно считать, что все эти элементы стилей присутствуют на Talking With Strangers, в то же время просто немыслимо создать для этого творения конкретную категорию. Лирика на альбоме тесно сплетается с узловыми темами жизни нашей героини. Не странно, что 19-минутное произведение Harp song превратилось в сентиментальное эпическое путешествие, завлекая в сети сладкозвучных мемуаров ярких призраков из прошлого – музыкантов, которые разделяли с Dyble величественные моменты 60-тых (обязательно дослушайте до конца, вас ожидает приятный сюрприз).
Таким образом, Ian McDonald и Robert Fripp (King Crimson), Celia Humphris (Trees), Jacqui McShee (Pentangle) и Simon Nicol (Fairport Convention) отобразились в зеркале романтической памяти, завертелись воронкой отголосков-напоминаний о встречах, несомненно, блистательных времен… (Misirlou)

Musicians:
Judy Dyble - Voice [1-7]; Autoharp [2,5,7]
Alistair Murphy - Acoustic Guitar [2,3,5], Organ [2,3,5], Keyboards [2,3,5], 12 String Guitar [5], Electric Guitar [5], Piano [4,5] Dynatron [4]; numerous instruments 10+ [7]
Tim Bowness - Voice [6]; Additional Voice [1-5, 7]; Electric Guitar [7]
Robert Fripp - Guitar [7], Soundscapes [7]
Ian McDonald - Flute [3, 7], Alto Flute [5, 7]; Lead Alto Sax [7], Ukelele [7]
Pat Mastelotto - Drums & Percussion [3,5-7]
Simon Nicol - Acoustic Guitar [1,7]
Laurie A'Court - Tenor & Alto Sax [6,7]
Rachel Hall - Violin [7]
Mark Fletcher - Bass [3,5-7]
Harry Fletcher - Electric Guitar [7]
Sanchia Pattinson - Oboe [7]
Paul Robinson - Electric Guitar [7]
John Gillies - Acoustic Guitar [5]
Jacqui McShee - Additional Voice [2,5,7]
Julianne Regan - Additional Voices [3,7]
Celia Humphris - Additional Voice [3, 7]
Код:
Код:
Exact Audio Copy V1.0 beta 1 from 15. November 2010

EAC extraction logfile from 6. May 2011, 9:20

Judy Dyble / Talking With Strangers

Used drive  : ATAPI   iHAS124   Y   Adapter: 2  ID: 0

Read mode               : Secure
Utilize accurate stream : Yes
Defeat audio cache      : Yes
Make use of C2 pointers : No

Read offset correction                      : 48
Overread into Lead-In and Lead-Out          : No
Fill up missing offset samples with silence : Yes
Delete leading and trailing silent blocks   : No
Null samples used in CRC calculations       : Yes
Used interface                              : Installed external ASPI interface

Used output format : Internal WAV Routines
Sample format      : 44.100 Hz; 16 Bit; Stereo

TOC of the extracted CD

     Track |   Start  |  Length  | Start sector | End sector
    ---------------------------------------------------------
        1  |  0:00.00 |  1:42.24 |         0    |     7673
        2  |  1:42.24 |  3:07.18 |      7674    |    21716
        3  |  4:49.42 |  4:17.55 |     21717    |    41046
        4  |  9:07.22 |  3:25.57 |     41047    |    56478
        5  | 12:33.04 |  4:21.00 |     56479    |    76053
        6  | 16:54.04 |  6:07.71 |     76054    |   103649
        7  | 23:02.00 | 19:19.42 |    103650    |   190616

Range status and errors

Selected range

     Filename C:\New Folder (8)\Judy Dyble - Talking With Strangers.wav

     Peak level 98.8 %
     Extraction speed 1.6 X
     Range quality 100.0 %
     Test CRC 8EE7DF35
     Copy CRC 8EE7DF35
     Copy OK

No errors occurred

AccurateRip summary

Track  1  accurately ripped (confidence 5)  [E7F94BE3]
Track  2  accurately ripped (confidence 6)  [AAB0F10C]
Track  3  accurately ripped (confidence 6)  [62894F32]
Track  4  accurately ripped (confidence 6)  [B6AEEF53]
Track  5  accurately ripped (confidence 6)  [CBF09252]
Track  6  accurately ripped (confidence 6)  [6541083F]
Track  7  accurately ripped (confidence 6)  [3EBF9EB2]

All tracks accurately ripped

End of status report

==== Log checksum 674EDABE7567ADB548232F8EBB4798C0E93DBBE8DA801807AEAEE6E971BE289D ====
Код:
Код:
-----------------------

DON'T MODIFY THIS FILE

-----------------------

PERFORMER: auCDtect Task Manager, ver. 1.6.0 RC1 build 1.6.0.1
Copyright (c) 2008-2010 y-soft. All rights reserved
http:/y-soft.org

ANALYZER: auCDtect: CD records authenticity detector, version 0.8.2
Copyright (c) 2004 Oleg Berngardt. All rights reserved.
Copyright (c) 2004 Alexander Djourik. All rights reserved.

FILE: Judy Dyble - Talking With Strangers.wv
  Size: 341140369 Hash: 8A7B905D00756C93E99D6F6CE348377A Accuracy: -m0
  Conclusion: CDDA 100%
  Signature: 7C1DF2E3CA4A983FFEE0EBD239964BC2D0C35BE5
Код:
Код:
REM GENRE Folk/Rock
REM DATE 2009
REM DISCID 4E09ED07
REM COMMENT "ExactAudioCopy v1.0b1"
PERFORMER "Judy Dyble"
TITLE "Talking With Strangers"
FILE "Judy Dyble - Talking With Strangers.wav" WAVE
  TRACK 01 AUDIO
    TITLE "Never Knowing"
    PERFORMER "Judy Dyble"
    INDEX 01 00:00:00
  TRACK 02 AUDIO
    TITLE "Jazzbirds"
    PERFORMER "Judy Dyble"
    INDEX 01 01:42:24
  TRACK 03 AUDIO
    TITLE "C'est La Vie"
    PERFORMER "Judy Dyble"
    INDEX 00 04:48:07
    INDEX 01 04:49:42
  TRACK 04 AUDIO
    TITLE "Talking With Strangers"
    PERFORMER "Judy Dyble"
    INDEX 00 09:05:65
    INDEX 01 09:07:22
  TRACK 05 AUDIO
    TITLE "Dreamtime"
    PERFORMER "Judy Dyble"
    INDEX 00 12:31:47
    INDEX 01 12:33:04
  TRACK 06 AUDIO
    TITLE "Grey October Day"
    PERFORMER "Judy Dyble"
    INDEX 00 16:52:46
    INDEX 01 16:54:04
  TRACK 07 AUDIO
    TITLE "Harp Song"
    PERFORMER "Judy Dyble"
    INDEX 00 22:59:43
    INDEX 01 23:02:00
Правила, инструкции, FAQ!!!
Торрент  Добавлен [16 мар 2014, 00:04] Скачать торрент Магнет ссылка
Скачать торрент
[ Размер 17.19 КБ / Просмотров 23 ]

Статус  
 
Размер  402.89 МБ
Приватный: Нет (DHT включён)
.torrent скачан  0
 


     Отправить личное сообщение
   
Страница 1 из 1
Показать сообщения за:  Поле сортировки  
Начать новую тему Ответить на тему


Сейчас этот форум просматривают: нет зарегистрированных пользователей и гости: 0


Вы не можете начинать темы
Вы не можете отвечать на сообщения
Вы не можете редактировать свои сообщения
Вы не можете удалять свои сообщения
Вы не можете добавлять вложения

Перейти:  
cron
cron