Начать новую тему Ответить на тему
Статистика раздачи
Размер: 355.39 МБ | Добавлен: 16 мар 2014, 00:07 | Скачали: 0
Сидеров: 1  [0 байт/сек]    Личеров: 2  [0 байт/сек]
Пред. тема | След. тема 

Автор
Сообщение

СообщениеДобавлено: 16 мар 2014, 00:07 

Ответить с цитатой 

John Lennon & Yoko Ono - Double Fantasy (1980)

Год: 1980
Жанр: Rock
Лейбл: EMI
Каталог #: TOCP-70399
Продолжительность: 00:54:03
Кодек: FLAC
Тип рипа: image + .cue
Битрейт: Lossless
Треклист:
01. (Just Like) Starting Over (3:57)
02. Kiss Kiss Kiss (2:41)
03. Cleanup Time (2:58)
04. Give Me Something (1:36)
05. I'm Losing You (3:57)
06. I'm Moving On (2:20)
07. Beautiful Boy (Darling Boy) (4:04)
08. Watching The Wheels (3:59)
09. Yes I'm Your Angel (3:10)
10. Woman (3:32)
11. Beautiful Boys (2:55)
12. Dear Yoko (2:35)
13. Every Man Has A Woman Who Loves Him (4:02)
14. Hard Times Are Over (3:22)
15. Help Me To Help Myself (2:38)
16. Walking On Thin Ice (6:01)
17. Central Park Stroll (Dialogue) (0:17)
Код:
Код:
Exact Audio Copy V1.0 beta 3 from 29. August 2011

EAC extraction logfile from 4. January 2014, 19:09

John Lennon & Yoko Ono / Double Fantasy (TOCP-70399)

Used drive  : PLEXTOR DVDR   PX-891SA   Adapter: 3  ID: 0

Read mode               : Secure
Utilize accurate stream : Yes
Defeat audio cache      : Yes
Make use of C2 pointers : No

Read offset correction                      : 6
Overread into Lead-In and Lead-Out          : No
Fill up missing offset samples with silence : Yes
Delete leading and trailing silent blocks   : No
Null samples used in CRC calculations       : Yes
Used interface                              : Native Win32 interface for Win NT & 2000

Used output format              : User Defined Encoder
Selected bitrate                : 1024 kBit/s
Quality                         : High
Add ID3 tag                     : No
Command line compressor         : C:\Program Files\Exact Audio Copy\Flac\flac.exe
Additional command line options : -V -8 -T "Genre=%genre%" -T "Artist=%artist%" -T "Title=%title%" -T "Album=%albumtitle%" -T "Date=%year%" -T "Tracknumber=%tracknr%" -T "Comment=%comment%" %source%

TOC of the extracted CD

     Track |   Start  |  Length  | Start sector | End sector
    ---------------------------------------------------------
        1  |  0:00.00 |  3:56.47 |         0    |    17746
        2  |  3:56.47 |  2:41.15 |     17747    |    29836
        3  |  6:37.62 |  2:58.35 |     29837    |    43221
        4  |  9:36.22 |  1:35.48 |     43222    |    50394
        5  | 11:11.70 |  3:57.00 |     50395    |    68169
        6  | 15:08.70 |  2:19.72 |     68170    |    78666
        7  | 17:28.67 |  4:04.05 |     78667    |    96971
        8  | 21:32.72 |  3:59.28 |     96972    |   114924
        9  | 25:32.25 |  3:09.47 |    114925    |   129146
       10  | 28:41.72 |  3:31.65 |    129147    |   145036
       11  | 32:13.62 |  2:55.13 |    145037    |   158174
       12  | 35:09.00 |  2:34.40 |    158175    |   169764
       13  | 37:43.40 |  4:02.12 |    169765    |   187926
       14  | 41:45.52 |  3:22.05 |    187927    |   203081
       15  | 45:07.57 |  2:37.55 |    203082    |   214911
       16  | 47:45.37 |  6:00.45 |    214912    |   241956
       17  | 53:46.07 |  0:17.00 |    241957    |   243231

Range status and errors

Selected range

     Filename H:\dafnaplus\John Lennon & Yoko Ono - Double Fantasy\John Lennon & Yoko Ono - Double Fantasy (TOCP-70399).wav

     Peak level 100.0 %
     Extraction speed 5.9 X
     Range quality 100.0 %
     Test CRC 77199A97
     Copy CRC 77199A97
     Copy OK

No errors occurred

AccurateRip summary

Track  1  accurately ripped (confidence 7)  [C35B0C72]  (AR v2)
Track  2  accurately ripped (confidence 7)  [1A5E46CA]  (AR v2)
Track  3  accurately ripped (confidence 7)  [BB69BCAA]  (AR v2)
Track  4  accurately ripped (confidence 7)  [BCF0B6F2]  (AR v2)
Track  5  accurately ripped (confidence 7)  [1519AD48]  (AR v2)
Track  6  accurately ripped (confidence 7)  [A533FF44]  (AR v2)
Track  7  accurately ripped (confidence 7)  [7D2E662D]  (AR v2)
Track  8  accurately ripped (confidence 7)  [6A303028]  (AR v2)
Track  9  accurately ripped (confidence 7)  [7406241B]  (AR v2)
Track 10  accurately ripped (confidence 8)  [2F297B13]  (AR v2)
Track 11  accurately ripped (confidence 7)  [87E5162C]  (AR v2)
Track 12  accurately ripped (confidence 7)  [15377F4C]  (AR v2)
Track 13  accurately ripped (confidence 7)  [6C6EAD6D]  (AR v2)
Track 14  accurately ripped (confidence 7)  [F2B6025E]  (AR v2)
Track 15  accurately ripped (confidence 7)  [2C2E67B0]  (AR v2)
Track 16  accurately ripped (confidence 7)  [82F28757]  (AR v2)
Track 17  accurately ripped (confidence 7)  [2477A43F]  (AR v2)

All tracks accurately ripped

End of status report

==== Log checksum C04FB9002B7F88BA8C59D268FA78A323ED0502EF0F1E0650CBB657D52404B20F ====

Код:
Код:
-----------------------

DON'T MODIFY THIS FILE

-----------------------

PERFORMER: auCDtect Task Manager, ver. 1.6.0 RC1 build 1.6.0.1
Copyright (c) 2008-2010 y-soft. All rights reserved
http:/y-soft.org

ANALYZER: auCDtect: CD records authenticity detector, version 0.8.2
Copyright (c) 2004 Oleg Berngardt. All rights reserved.
Copyright (c) 2004 Alexander Djourik. All rights reserved.

FILE: John Lennon & Yoko Ono - Double Fantasy (TOCP-70399).flac
  Size: 351532953 Hash: 6EBD10FF2BD3BA15700C3BD70678C5CE Accuracy: -m0
  Conclusion: CDDA 100%
  Signature: BDF751626DEC96DD45A323A1E4EBF0486735F7F7

Код:
Код:
REM GENRE Rock
REM DATE 2008
REM DISCID EE0CAB11
REM COMMENT "ExactAudioCopy v1.0b3"
CATALOG 4988006785052
PERFORMER "John Lennon & Yoko Ono"
TITLE "Double Fantasy (TOCP-70399)"
FILE "John Lennon & Yoko Ono - Double Fantasy (TOCP-70399).flac" WAVE
  TRACK 01 AUDIO
    TITLE "(Just Like) Starting Over"
    PERFORMER "John Lennon & Yoko Ono"
    ISRC USTO10000002
    INDEX 01 00:00:00
  TRACK 02 AUDIO
    TITLE "Kiss Kiss Kiss"
    PERFORMER "John Lennon & Yoko Ono"
    ISRC USTO10000003
    INDEX 00 03:55:42
    INDEX 01 03:56:47
  TRACK 03 AUDIO
    TITLE "Cleanup Time"
    PERFORMER "John Lennon & Yoko Ono"
    ISRC USTO10000004
    INDEX 01 06:37:62
  TRACK 04 AUDIO
    TITLE "Give Me Something"
    PERFORMER "John Lennon & Yoko Ono"
    ISRC USTO10000005
    INDEX 01 09:36:22
  TRACK 05 AUDIO
    TITLE "I'm Losing You"
    PERFORMER "John Lennon & Yoko Ono"
    ISRC USTO10000006
    INDEX 01 11:11:70
  TRACK 06 AUDIO
    TITLE "I'm Moving On"
    PERFORMER "John Lennon & Yoko Ono"
    ISRC USTO10000007
    INDEX 01 15:08:70
  TRACK 07 AUDIO
    TITLE "Beautiful Boy (Darling Boy)"
    PERFORMER "John Lennon & Yoko Ono"
    ISRC USTO10000008
    INDEX 01 17:28:67
  TRACK 08 AUDIO
    TITLE "Watching The Wheels"
    PERFORMER "John Lennon & Yoko Ono"
    ISRC USTO10000009
    INDEX 00 21:31:05
    INDEX 01 21:32:72
  TRACK 09 AUDIO
    TITLE "Yes I'm Your Angel"
    PERFORMER "John Lennon & Yoko Ono"
    ISRC USTO10000010
    INDEX 01 25:32:25
  TRACK 10 AUDIO
    TITLE "Woman"
    PERFORMER "John Lennon & Yoko Ono"
    ISRC USTO10000011
    INDEX 01 28:41:72
  TRACK 11 AUDIO
    TITLE "Beautiful Boys"
    PERFORMER "John Lennon & Yoko Ono"
    ISRC USTO10000012
    INDEX 01 32:13:62
  TRACK 12 AUDIO
    TITLE "Dear Yoko"
    PERFORMER "John Lennon & Yoko Ono"
    ISRC USTO10000013
    INDEX 01 35:09:00
  TRACK 13 AUDIO
    TITLE "Every Man Has A Woman Who Loves Him"
    PERFORMER "John Lennon & Yoko Ono"
    ISRC USTO10000014
    INDEX 01 37:43:40
  TRACK 14 AUDIO
    TITLE "Hard Times Are Over"
    PERFORMER "John Lennon & Yoko Ono"
    ISRC USTO10000015
    INDEX 01 41:45:52
  TRACK 15 AUDIO
    TITLE "Help Me To Help Myself"
    PERFORMER "John Lennon & Yoko Ono"
    ISRC USTO19999917
    INDEX 00 45:05:60
    INDEX 01 45:07:57
  TRACK 16 AUDIO
    TITLE "Walking On Thin Ice"
    PERFORMER "John Lennon & Yoko Ono"
    ISRC USTO10000016
    INDEX 01 47:45:37
  TRACK 17 AUDIO
    TITLE "Central Park Stroll (Dialogue)"
    PERFORMER "John Lennon & Yoko Ono"
    ISRC USTO10000017
    INDEX 01 53:46:07

Код:
Код:
[CUETools log; Date: 10.01.2014 18:08:40; Version: 2.1.4]
[CTDB TOCID: TnDK.7dUL32UAhYkUtnKIzKGgfY-] found.
Track | CTDB Status
  1   | (13/14) Accurately ripped
  2   | (14/14) Accurately ripped
  3   | (14/14) Accurately ripped
  4   | (14/14) Accurately ripped
  5   | (14/14) Accurately ripped
  6   | (14/14) Accurately ripped
  7   | (14/14) Accurately ripped
  8   | (13/14) Accurately ripped
  9   | (13/14) Accurately ripped
 10   | (14/14) Accurately ripped
 11   | (14/14) Accurately ripped
 12   | (12/14) Accurately ripped
 13   | (14/14) Accurately ripped
 14   | (14/14) Accurately ripped
 15   | (14/14) Accurately ripped
 16   | (13/14) Accurately ripped
 17   | (14/14) Accurately ripped
[AccurateRip ID: 00217711-01aa01ea-ee0cab11] found.
Track   [  CRC   |   V2   ] Status
 01     [b348e42b|c35b0c72] (07+09/27) Accurately ripped
 02     [f8191cce|1a5e46ca] (07+09/27) Accurately ripped
 03     [847a9389|bb69bcaa] (07+09/27) Accurately ripped
 04     [713d0c65|bcf0b6f2] (07+09/27) Accurately ripped
 05     [b313e2e7|1519ad48] (07+09/27) Accurately ripped
 06     [71a30d57|a533ff44] (07+09/27) Accurately ripped
 07     [7d699828|7d2e662d] (07+09/27) Accurately ripped
 08     [57b09a5c|6a303028] (07+09/26) Accurately ripped
 09     [246c3382|7406241b] (07+09/26) Accurately ripped
 10     [3a08ceca|2f297b13] (07+10/27) Accurately ripped
 11     [8e4f4cbd|87e5162c] (07+09/26) Accurately ripped
 12     [6974af52|15377f4c] (07+09/26) Accurately ripped
 13     [5af0f519|6c6ead6d] (07+09/26) Accurately ripped
 14     [0a118747|f2b6025e] (07+09/26) Accurately ripped
 15     [89ff8c77|2c2e67b0] (07+09/26) Accurately ripped
 16     [ff4a2812|82f28757] (07+09/26) Accurately ripped
 17     [8a4ad4ee|2477a43f] (07+09/26) Accurately ripped
Offsetted by -30:
 01     [64e0974b] (02/27) Accurately ripped
 02     [2eb5109a] (02/27) Accurately ripped
 03     [9760c83d] (02/27) Accurately ripped
 04     [8e1f96d1] (02/27) Accurately ripped
 05     [582826c9] (02/27) Accurately ripped
 06     [f398e22a] (02/27) Accurately ripped
 07     [98866a15] (02/27) Accurately ripped
 08     [721bd1ab] (02/26) Accurately ripped
 09     [e0fa72ab] (02/26) Accurately ripped
 10     [5dea968a] (02/27) Accurately ripped
 11     [bdfd204f] (02/26) Accurately ripped
 12     [294ce2c2] (02/26) Accurately ripped
 13     [cdc9e89e] (02/26) Accurately ripped
 14     [eb6173e4] (02/26) Accurately ripped
 15     [af4288b3] (02/26) Accurately ripped
 16     [97b610e6] (02/26) Accurately ripped
 17     [91bb77e8] (02/26) Accurately ripped
Offsetted by 1352:
 01     [5eb66cab] (05/27) Accurately ripped
 02     [88545d82] (05/27) Accurately ripped
 03     [465e7ddd] (05/27) Accurately ripped
 04     [b0d31495] (05/27) Accurately ripped
 05     [040cd3b8] (05/27) Accurately ripped
 06     [1c31b122] (05/27) Accurately ripped
 07     [fb4e3510] (05/27) Accurately ripped
 08     [6caed705] (04/26) Accurately ripped
 09     [7ad8da79] (04/26) Accurately ripped
 10     [975ea014] (04/27) Accurately ripped
 11     [3a07877b] (04/26) Accurately ripped
 12     [a3a97f12] (04/26) Accurately ripped
 13     [8d859a68] (04/26) Accurately ripped
 14     [a8ab9418] (04/26) Accurately ripped
 15     [eb7aeb88] (04/26) Accurately ripped
 16     [ab03274d] (04/26) Accurately ripped
 17     [44746872] (04/26) Accurately ripped

Track Peak [ CRC32  ] [W/O NULL] [  LOG   ]
 --   99,9 [77199A97] [0448CCC3]   CRC32
 01   99,9 [D35A41F5] [73EA65D8]
 02   99,9 [8B1CBF76] [26B48881]
 03   99,9 [828D27E2] [4A2A86E1]
 04   99,9 [761F2345] [26F852BD]
 05   99,9 [EB589CA0] [1AB9FE9A]
 06   99,9 [34C08C9C] [1788C597]
 07   99,9 [CD8B3511] [BC22BE63]
 08   99,9 [3EEC6ECB] [F71DCEDC]
 09   99,9 [FF5AE674] [4DBF72E3]
 10   99,9 [6726DB24] [AD6DFEA9]
 11   99,9 [8E992288] [A7CBA7E2]
 12   99,9 [505AD8E2] [A0C1EAA7]
 13   99,9 [2F0BE891] [6020AFF7]
 14   99,9 [A6F07A3A] [1BDCEFA6]
 15   80,7 [D3E41D13] [75CB86B0]
 16   99,9 [F5977100] [A0CAAB6B]
 17   70,7 [62C3823B] [40A91A92]

Правила, инструкции, FAQ!!!
Торрент  Добавлен [16 мар 2014, 00:07] Скачать торрент Магнет ссылка
Скачать торрент
[ Размер 15.3 КБ / Просмотров 15 ]

Статус  
 
Размер  355.39 МБ
Приватный: Нет (DHT включён)
.torrent скачан  0
 


     Отправить личное сообщение
   
Страница 1 из 1
Показать сообщения за:  Поле сортировки  
Начать новую тему Ответить на тему


Сейчас этот форум просматривают: нет зарегистрированных пользователей и гости: 0


Вы не можете начинать темы
Вы не можете отвечать на сообщения
Вы не можете редактировать свои сообщения
Вы не можете удалять свои сообщения
Вы не можете добавлять вложения

Перейти:  
cron