Начать новую тему Ответить на тему
Статистика раздачи
Размер: 429.57 МБ | Добавлен: 16 мар 2014, 00:07 | Скачали: 0
Сидеров: 1  [0 байт/сек]    Личеров: 5  [0 байт/сек]
Пред. тема | След. тема 

Автор
Сообщение

СообщениеДобавлено: 16 мар 2014, 00:07 

Ответить с цитатой 

John Lennon - Walls And Bridges (1974)

Год: 1974
Жанр: Rock
Лейбл: EMI
Каталог #: TOCP-70396
Продолжительность: 00:59:26
Кодек: FLAC
Тип рипа: image + .cue
Битрейт: Lossless
Треклист:
01. Going Down On Love (3:56)
02. Whatever Gets You Thru The Night (3:28)
03. Old Dirt Road (4:11)
04. What You Got (3:10)
05. Bless You (4:38)
06. Scared (4:37)
07. #9 Dream (4:47)
08. Surprise, Surprise (Sweet Bird Of Paradox) (2:56)
09. Steel And Glass (4:36)
10. Beef Jerky (3:27)
11. Nobody Loves You (When You're Down And Out) (5:09)
12. Ya Ya (1:12)
13. Whatever Get You Thru the Night (4:23)
14. Nobody Loves You (When You're Down And Out) (5:07)
15. John Interview (3:49)
Код:
Код:
Exact Audio Copy V1.0 beta 3 from 29. August 2011

EAC extraction logfile from 4. January 2014, 18:41

John Lennon / Walls And Bridges (TOCP-70396)

Used drive  : PLEXTOR DVDR   PX-891SA   Adapter: 3  ID: 0

Read mode               : Secure
Utilize accurate stream : Yes
Defeat audio cache      : Yes
Make use of C2 pointers : No

Read offset correction                      : 6
Overread into Lead-In and Lead-Out          : No
Fill up missing offset samples with silence : Yes
Delete leading and trailing silent blocks   : No
Null samples used in CRC calculations       : Yes
Used interface                              : Native Win32 interface for Win NT & 2000

Used output format              : User Defined Encoder
Selected bitrate                : 1024 kBit/s
Quality                         : High
Add ID3 tag                     : No
Command line compressor         : C:\Program Files\Exact Audio Copy\Flac\flac.exe
Additional command line options : -V -8 -T "Genre=%genre%" -T "Artist=%artist%" -T "Title=%title%" -T "Album=%albumtitle%" -T "Date=%year%" -T "Tracknumber=%tracknr%" -T "Comment=%comment%" %source%

TOC of the extracted CD

     Track |   Start  |  Length  | Start sector | End sector
    ---------------------------------------------------------
        1  |  0:00.00 |  3:56.05 |         0    |    17704
        2  |  3:56.05 |  3:27.48 |     17705    |    33277
        3  |  7:23.53 |  4:11.32 |     33278    |    52134
        4  | 11:35.10 |  3:10.37 |     52135    |    66421
        5  | 14:45.47 |  4:37.40 |     66422    |    87236
        6  | 19:23.12 |  4:37.12 |     87237    |   108023
        7  | 24:00.24 |  4:47.00 |    108024    |   129548
        8  | 28:47.24 |  2:56.17 |    129549    |   142765
        9  | 31:43.41 |  4:35.67 |    142766    |   163457
       10  | 36:19.33 |  3:27.23 |    163458    |   179005
       11  | 39:46.56 |  5:08.48 |    179006    |   202153
       12  | 44:55.29 |  1:11.41 |    202154    |   207519
       13  | 46:06.70 |  4:23.15 |    207520    |   227259
       14  | 50:30.10 |  5:07.12 |    227260    |   250296
       15  | 55:37.22 |  3:48.73 |    250297    |   267469

Range status and errors

Selected range

     Filename H:\dafnaplus\John Lennon - Walls And Bridges\John Lennon - Walls And Bridges (TOCP-70396).wav

     Peak level 99.2 %
     Extraction speed 6.1 X
     Range quality 100.0 %
     Test CRC CB2D5A51
     Copy CRC CB2D5A51
     Copy OK

No errors occurred

AccurateRip summary

Track  1  accurately ripped (confidence 17)  [80C96908]  (AR v2)
Track  2  accurately ripped (confidence 17)  [7AAE3A9A]  (AR v2)
Track  3  accurately ripped (confidence 17)  [12F75689]  (AR v2)
Track  4  accurately ripped (confidence 17)  [065A11A3]  (AR v2)
Track  5  accurately ripped (confidence 17)  [2335DF1D]  (AR v2)
Track  6  accurately ripped (confidence 17)  [B15B70CA]  (AR v2)
Track  7  accurately ripped (confidence 17)  [0E9DC4CB]  (AR v2)
Track  8  accurately ripped (confidence 16)  [BE3C02B7]  (AR v2)
Track  9  accurately ripped (confidence 17)  [1B07E5A7]  (AR v2)
Track 10  accurately ripped (confidence 17)  [2504F841]  (AR v2)
Track 11  accurately ripped (confidence 17)  [B8AD3A7D]  (AR v2)
Track 12  accurately ripped (confidence 18)  [C0585FB4]  (AR v2)
Track 13  accurately ripped (confidence 18)  [CC5193A1]  (AR v2)
Track 14  accurately ripped (confidence 18)  [F655C6CD]  (AR v2)
Track 15  accurately ripped (confidence 17)  [A3AC6B06]  (AR v2)

All tracks accurately ripped

End of status report

==== Log checksum 842A20CF467CE2FDF622AB902B4FB923BE215ECEEFAA63044C0B72D95F6DFA1E ====

Код:
Код:
-----------------------

DON'T MODIFY THIS FILE

-----------------------

PERFORMER: auCDtect Task Manager, ver. 1.6.0 RC1 build 1.6.0.1
Copyright (c) 2008-2010 y-soft. All rights reserved
http:/y-soft.org

ANALYZER: auCDtect: CD records authenticity detector, version 0.8.2
Copyright (c) 2004 Oleg Berngardt. All rights reserved.
Copyright (c) 2004 Alexander Djourik. All rights reserved.

FILE: John Lennon - Walls And Bridges (TOCP-70396).flac
  Size: 380944845 Hash: 48A82347EA2F873D4484A616A06535E5 Accuracy: -m0
  Conclusion: CDDA 100%
  Signature: 91526E3F4B98079F996CA99DD4B7F7D366859955

Код:
Код:
REM GENRE Rock
REM DATE 2008
REM DISCID ED0DEE0F
REM COMMENT "ExactAudioCopy v1.0b3"
CATALOG 4988006835689
PERFORMER "John Lennon"
TITLE "Walls And Bridges (TOCP-70396)"
FILE "John Lennon - Walls And Bridges (TOCP-70396).flac" WAVE
  TRACK 01 AUDIO
    TITLE "Going Down On Love"
    PERFORMER "John Lennon"
    ISRC GBAYE0501432
    INDEX 01 00:00:00
  TRACK 02 AUDIO
    TITLE "Whatever Gets You Thru The Night"
    PERFORMER "John Lennon"
    ISRC GBAYE0501431
    INDEX 00 03:55:41
    INDEX 01 03:56:05
  TRACK 03 AUDIO
    TITLE "Old Dirt Road"
    PERFORMER "John Lennon"
    ISRC GBAYE0501433
    INDEX 00 07:21:65
    INDEX 01 07:23:53
  TRACK 04 AUDIO
    TITLE "What You Got"
    PERFORMER "John Lennon"
    ISRC GBAYE0501434
    INDEX 00 11:34:35
    INDEX 01 11:35:10
  TRACK 05 AUDIO
    TITLE "Bless You"
    PERFORMER "John Lennon"
    ISRC GBAYE0501435
    INDEX 00 14:42:50
    INDEX 01 14:45:47
  TRACK 06 AUDIO
    TITLE "Scared"
    PERFORMER "John Lennon"
    ISRC GBAYE0501436
    INDEX 01 19:23:12
  TRACK 07 AUDIO
    TITLE "#9 Dream"
    PERFORMER "John Lennon"
    ISRC GBAYE0501441
    INDEX 00 23:59:16
    INDEX 01 24:00:24
  TRACK 08 AUDIO
    TITLE "Surprise, Surprise (Sweet Bird Of Paradox)"
    PERFORMER "John Lennon"
    ISRC GBAYE0501437
    INDEX 00 28:45:30
    INDEX 01 28:47:24
  TRACK 09 AUDIO
    TITLE "Steel And Glass"
    PERFORMER "John Lennon"
    ISRC GBAYE0501438
    INDEX 00 31:42:19
    INDEX 01 31:43:41
  TRACK 10 AUDIO
    TITLE "Beef Jerky"
    PERFORMER "John Lennon"
    ISRC GBAYE0501439
    INDEX 00 36:18:36
    INDEX 01 36:19:33
  TRACK 11 AUDIO
    TITLE "Nobody Loves You (When You're Down And Out)"
    PERFORMER "John Lennon"
    ISRC GBAYE0501391
    INDEX 00 39:45:67
    INDEX 01 39:46:56
  TRACK 12 AUDIO
    TITLE "Ya Ya"
    PERFORMER "John Lennon"
    ISRC GBAYE0501442
    INDEX 00 44:54:24
    INDEX 01 44:55:29
  TRACK 13 AUDIO
    TITLE "Whatever Get You Thru the Night"
    PERFORMER "John Lennon"
    ISRC GBAMS9400014
    INDEX 00 46:00:28
    INDEX 01 46:06:70
  TRACK 14 AUDIO
    TITLE "Nobody Loves You (When You're Down And Out)"
    PERFORMER "John Lennon"
    ISRC GBAYE0501444
    INDEX 00 50:28:60
    INDEX 01 50:30:10
  TRACK 15 AUDIO
    TITLE "John Interview"
    PERFORMER "John Lennon"
    ISRC GBAYE0501445
    INDEX 00 55:33:36
    INDEX 01 55:37:22

Код:
Код:
[CUETools log; Date: 10.01.2014 17:46:45; Version: 2.1.4]
[CTDB TOCID: 7kGUNs9PWVRtqpg3wp1EOqsOxLs-] found.
Track | CTDB Status
  1   | (13/14) Accurately ripped
  2   | (13/14) Accurately ripped
  3   | (13/14) Accurately ripped
  4   | (13/14) Accurately ripped
  5   | (13/14) Accurately ripped
  6   | (13/14) Accurately ripped
  7   | (13/14) Accurately ripped
  8   | (13/14) Accurately ripped
  9   | (13/14) Accurately ripped
 10   | (13/14) Accurately ripped
 11   | (13/14) Accurately ripped
 12   | (13/14) Accurately ripped
 13   | (13/14) Accurately ripped
 14   | (13/14) Accurately ripped
 15   | (13/14) Accurately ripped
[AccurateRip ID: 00209109-01718ff8-ed0dee0f] found.
Track   [  CRC   |   V2   ] Status
 01     [d28bb39c|80c96908] (42+18/77) Accurately ripped
 02     [4ac71556|7aae3a9a] (41+18/76) Accurately ripped
 03     [c198ffac|12f75689] (41+18/76) Accurately ripped
 04     [50b41449|065a11a3] (41+18/77) Accurately ripped
 05     [27203804|2335df1d] (43+18/77) Accurately ripped
 06     [acc2371b|b15b70ca] (41+18/76) Accurately ripped
 07     [774242e9|0e9dc4cb] (44+18/80) Accurately ripped
 08     [873374ef|be3c02b7] (41+17/75) Accurately ripped
 09     [58d31167|1b07e5a7] (42+18/78) Accurately ripped
 10     [7a2725f6|2504f841] (41+18/76) Accurately ripped
 11     [b6effdd4|b8ad3a7d] (40+18/75) Accurately ripped
 12     [a728a72f|c0585fb4] (41+19/77) Accurately ripped
 13     [528fca7e|cc5193a1] (38+19/74) Accurately ripped
 14     [26e518a2|f655c6cd] (38+19/74) Accurately ripped
 15     [eaa5ce37|a3ac6b06] (34+18/69) Accurately ripped
Offsetted by -664:
 01     [73ee2104] (04/77) Accurately ripped
 02     [5510512e] (04/76) Accurately ripped
 03     [701eed54] (04/76) Accurately ripped
 04     [b3e49881] (04/77) Accurately ripped
 05     [ce66627e] (04/77) Accurately ripped
 06     [c9ddeb59] (04/76) Accurately ripped
 07     [af40b019] (04/80) Accurately ripped
 08     [98cd2fff] (04/75) Accurately ripped
 09     [c934fc0f] (04/78) Accurately ripped
 10     [5c3121b6] (04/76) Accurately ripped
 11     [4a88d67c] (04/75) Accurately ripped
 12     [b9cfaadf] (04/77) Accurately ripped
 13     [4f3d51ae] (04/74) Accurately ripped
 14     [89af4012] (04/74) Accurately ripped
 15     [695b36b7] (04/69) Accurately ripped
Offsetted by -86:
 01     [c1aa2f46] (06/77) Accurately ripped
 02     [8c1c227c] (06/76) Accurately ripped
 03     [b1a5b7e6] (06/76) Accurately ripped
 04     [41ca8e47] (06/77) Accurately ripped
 05     [1494154e] (05/77) Accurately ripped
 06     [bfaabf7b] (06/76) Accurately ripped
 07     [4eb42d95] (06/80) Accurately ripped
 08     [e227c0d3] (06/75) Accurately ripped
 09     [754272e1] (06/78) Accurately ripped
 10     [83618066] (06/76) Accurately ripped
 11     [316116ce] (06/75) Accurately ripped
 12     [ff2a3c7b] (06/77) Accurately ripped
 13     [cb310faa] (06/74) Accurately ripped
 14     [d1c3225e] (06/74) Accurately ripped
 15     [48f03157] (06/69) Accurately ripped
Offsetted by -18:
 01     [3438c78a] (03/77) Accurately ripped
 02     [0b0e7758] (03/76) Accurately ripped
 03     [5f00deca] (03/76) Accurately ripped
 04     [acd68d13] (04/77) Accurately ripped
 05     [13276a9a] (03/77) Accurately ripped
 06     [656cfbcf] (03/76) Accurately ripped
 07     [d9eef10d] (04/80) Accurately ripped
 08     [dbb9effb] (03/75) Accurately ripped
 09     [2f25ea45] (04/78) Accurately ripped
 10     [87fdc7c6] (03/76) Accurately ripped
 11     [a6e3f132] (03/75) Accurately ripped
 12     [e934e433] (03/77) Accurately ripped
 13     [e8d54422] (03/74) Accurately ripped
 14     [9e01b576] (03/74) Accurately ripped
 15     [815c1297] (03/69) Accurately ripped
Offsetted by 6:
 01     [5ca757a2] (00/77) No match (V2 was not tested)
 02     [0aaf4a00] (00/76) No match (V2 was not tested)
 03     [8d210aa2] (00/76) No match (V2 was not tested)
 04     [8753415b] (00/77) No match (V2 was not tested)
 05     [b278d1be] (00/77) No match (V2 was not tested)
 06     [8beea133] (00/76) No match (V2 was not tested)
 07     [565e08dd] (00/80) No match (V2 was not tested)
 08     [15b14beb] (00/75) No match (V2 was not tested)
 09     [bc0cc91d] (00/78) No match (V2 was not tested)
 10     [2034f006] (00/76) No match (V2 was not tested)
 11     [66f4020a] (00/75) No match (V2 was not tested)
 12     [3bcf3d83] (00/77) No match (V2 was not tested)
 13     [2078a1f2] (00/74) No match (V2 was not tested)
 14     [a9db8f06] (00/74) No match (V2 was not tested)
 15     [0dbe6217] (00/69) No match (V2 was not tested)

Track Peak [ CRC32  ] [W/O NULL] [  LOG   ]
 --   99,2 [CB2D5A51] [A4D3A3A3]   CRC32
 01   98,9 [910D551B] [EB0244AF]
 02   98,5 [17107544] [CB6DF481]
 03   98,9 [89A841B2] [BDB9665F]
 04   98,7 [2F1E6BD3] [A4EC7229]
 05   98,3 [9B75B008] [2EF68DEE]
 06   98,8 [D07F1D00] [8878AF2A]
 07   99,2 [88F4B5D1] [E9646050]
 08   99,1 [46B2CB12] [A567C327]
 09   99,0 [3F90BB71] [A3AD09AA]
 10   99,0 [40044EA3] [593A4F12]
 11   98,9 [A30220DC] [16F37E28]
 12   96,1 [015CC449] [CE71C231]
 13   98,0 [35616860] [66609483]
 14   78,5 [4DCE372C] [435FDD19]
 15   73,6 [E107E6C5] [297DE962]

Правила, инструкции, FAQ!!!
Торрент  Добавлен [16 мар 2014, 00:07] Скачать торрент Магнет ссылка
Скачать торрент
[ Размер 18.41 КБ / Просмотров 40 ]

Статус  
 
Размер  429.57 МБ
Приватный: Нет (DHT включён)
.torrent скачан  0
 


     Отправить личное сообщение
   
Страница 1 из 1
Показать сообщения за:  Поле сортировки  
Начать новую тему Ответить на тему


Сейчас этот форум просматривают: нет зарегистрированных пользователей и гости: 0


Вы не можете начинать темы
Вы не можете отвечать на сообщения
Вы не можете редактировать свои сообщения
Вы не можете удалять свои сообщения
Вы не можете добавлять вложения

Перейти:  
cron
cron