Начать новую тему Ответить на тему
Статистика раздачи
Размер: 306.45 МБ | Добавлен: 16 мар 2014, 00:08 | Скачали: 0
Сидеров: 4  [0 байт/сек]    Личеров: 8  [0 байт/сек]
Пред. тема | След. тема 

Автор
Сообщение

СообщениеДобавлено: 16 мар 2014, 00:08 

Ответить с цитатой 

John Lennon - Plastic Ono Band (1970)

Год: 1970
Жанр: Rock
Лейбл: Mobile Fidelity Sound Lab
Каталог #: UDCD 760
Продолжительность: 00:46:26
Кодек: FLAC
Тип рипа: image + .cue
Битрейт: Lossless
Треклист:
01. Mother (5:37)
02. Hold On (1:52)
03. I Found Out (3:38)
04. Working Class Hero (3:51)
05. Isolation (2:52)
06. Remember (4:36)
07. Love (3:24)
08. Well Well Well (6:00)
09. Look At Me (2:55)
10. God (4:11)
11. My Mummy's Dead (0:59)
12. Power To The People (3:23)
13. Do The Oz (3:09)
Код:
Код:
Exact Audio Copy V1.0 beta 3 from 29. August 2011

EAC extraction logfile from 29. December 2013, 9:42

John Lennon / Plastic Ono Band (MFSL UDCD 760)

Used drive  : PLEXTOR DVDR   PX-891SA   Adapter: 3  ID: 0

Read mode               : Secure
Utilize accurate stream : Yes
Defeat audio cache      : Yes
Make use of C2 pointers : No

Read offset correction                      : 6
Overread into Lead-In and Lead-Out          : No
Fill up missing offset samples with silence : Yes
Delete leading and trailing silent blocks   : No
Null samples used in CRC calculations       : Yes
Used interface                              : Native Win32 interface for Win NT & 2000

Used output format              : User Defined Encoder
Selected bitrate                : 1024 kBit/s
Quality                         : High
Add ID3 tag                     : No
Command line compressor         : C:\Program Files\Exact Audio Copy\Flac\flac.exe
Additional command line options : -V -8 -T "Genre=%genre%" -T "Artist=%artist%" -T "Title=%title%" -T "Album=%albumtitle%" -T "Date=%year%" -T "Tracknumber=%tracknr%" -T "Comment=%comment%" %source%

TOC of the extracted CD

     Track |   Start  |  Length  | Start sector | End sector
    ---------------------------------------------------------
        1  |  0:00.00 |  5:37.00 |         0    |    25274
        2  |  5:37.00 |  1:51.63 |     25275    |    33662
        3  |  7:28.63 |  3:37.65 |     33663    |    50002
        4  | 11:06.53 |  3:50.52 |     50003    |    67304
        5  | 14:57.30 |  2:52.10 |     67305    |    80214
        6  | 17:49.40 |  4:36.23 |     80215    |   100937
        7  | 22:25.63 |  3:24.02 |    100938    |   116239
        8  | 25:49.65 |  5:59.53 |    116240    |   143217
        9  | 31:49.43 |  2:55.27 |    143218    |   156369
       10  | 34:44.70 |  4:10.45 |    156370    |   175164
       11  | 38:55.40 |  0:59.23 |    175165    |   179612
       12  | 39:54.63 |  3:22.50 |    179613    |   194812
       13  | 43:17.38 |  3:08.52 |    194813    |   208964

Range status and errors

Selected range

     Filename H:\dafnaplus\John Lennon - Plastic Ono Band\John Lennon - Plastic Ono Band (MFSL UDCD 760).wav

     Peak level 100.0 %
     Extraction speed 5.6 X
     Range quality 100.0 %
     Test CRC 470B8BF6
     Copy CRC 470B8BF6
     Copy OK

No errors occurred

AccurateRip summary

Track  1  accurately ripped (confidence 17)  [FD0507E6]  (AR v2)
Track  2  accurately ripped (confidence 17)  [A9CEF23F]  (AR v2)
Track  3  accurately ripped (confidence 17)  [FFF79D73]  (AR v2)
Track  4  accurately ripped (confidence 18)  [845E2544]  (AR v2)
Track  5  accurately ripped (confidence 17)  [5C98F050]  (AR v2)
Track  6  accurately ripped (confidence 17)  [2830F8FB]  (AR v2)
Track  7  accurately ripped (confidence 17)  [9FEE7523]  (AR v2)
Track  8  accurately ripped (confidence 17)  [2A4B07E7]  (AR v2)
Track  9  accurately ripped (confidence 17)  [0A5345DD]  (AR v2)
Track 10  accurately ripped (confidence 18)  [55EBA849]  (AR v2)
Track 11  accurately ripped (confidence 17)  [1E1152DA]  (AR v2)
Track 12  accurately ripped (confidence 17)  [3FF4B075]  (AR v2)
Track 13  accurately ripped (confidence 17)  [FB8FEE39]  (AR v2)

All tracks accurately ripped

End of status report

==== Log checksum 51012B8BB1A6B19B7ECE86CD5A5874184A30D6DF2ECE1BD9126EFBB514B4DC6A ====

Код:
Код:
-----------------------

DON'T MODIFY THIS FILE

-----------------------

PERFORMER: auCDtect Task Manager, ver. 1.6.0 RC1 build 1.6.0.1
Copyright (c) 2008-2010 y-soft. All rights reserved
http:/y-soft.org

ANALYZER: auCDtect: CD records authenticity detector, version 0.8.2
Copyright (c) 2004 Oleg Berngardt. All rights reserved.
Copyright (c) 2004 Alexander Djourik. All rights reserved.

FILE: John Lennon - Plastic Ono Band (MFSL UDCD 760).flac
  Size: 258274967 Hash: A1C98058DC3BCD14A8D8EB429896368D Accuracy: -m0
  Conclusion: CDDA 100%
  Signature: ED360A0D48F734F0678D52B6F63364B92E62928F

Код:
Код:
REM GENRE Rock
REM DATE 2000
REM DISCID C40AE20D
REM COMMENT "ExactAudioCopy v1.0b3"
PERFORMER "John Lennon"
TITLE "Plastic Ono Band (MFSL UDCD 760)"
FILE "John Lennon - Plastic Ono Band (MFSL UDCD 760).flac" WAVE
  TRACK 01 AUDIO
    TITLE "Mother"
    PERFORMER "John Lennon"
    INDEX 01 00:00:00
  TRACK 02 AUDIO
    TITLE "Hold On"
    PERFORMER "John Lennon"
    INDEX 00 05:34:13
    INDEX 01 05:37:00
  TRACK 03 AUDIO
    TITLE "I Found Out"
    PERFORMER "John Lennon"
    INDEX 01 07:28:63
  TRACK 04 AUDIO
    TITLE "Working Class Hero"
    PERFORMER "John Lennon"
    INDEX 01 11:06:53
  TRACK 05 AUDIO
    TITLE "Isolation"
    PERFORMER "John Lennon"
    INDEX 00 14:54:20
    INDEX 01 14:57:30
  TRACK 06 AUDIO
    TITLE "Remember"
    PERFORMER "John Lennon"
    INDEX 01 17:49:40
  TRACK 07 AUDIO
    TITLE "Love"
    PERFORMER "John Lennon"
    INDEX 00 22:22:13
    INDEX 01 22:25:63
  TRACK 08 AUDIO
    TITLE "Well Well Well"
    PERFORMER "John Lennon"
    INDEX 00 25:47:23
    INDEX 01 25:49:65
  TRACK 09 AUDIO
    TITLE "Look At Me"
    PERFORMER "John Lennon"
    INDEX 01 31:49:43
  TRACK 10 AUDIO
    TITLE "God"
    PERFORMER "John Lennon"
    INDEX 00 34:42:68
    INDEX 01 34:44:70
  TRACK 11 AUDIO
    TITLE "My Mummy's Dead"
    PERFORMER "John Lennon"
    INDEX 00 38:53:70
    INDEX 01 38:55:40
  TRACK 12 AUDIO
    TITLE "Power To The People "
    PERFORMER "John Lennon"
    INDEX 00 39:45:28
    INDEX 01 39:54:63
  TRACK 13 AUDIO
    TITLE "Do The Oz "
    PERFORMER "John Lennon"
    INDEX 00 43:16:38
    INDEX 01 43:17:38

Код:
Код:
[CUETools log; Date: 10.01.2014 10:21:51; Version: 2.1.4]
[CTDB TOCID: K5ZYmDVqSDcFmjtOqUNsgTE.9Bc-] found.
Track | CTDB Status
  1   | (17/17) Accurately ripped
  2   | (13/17) Accurately ripped, or (4/17) differs in 1 samples @00:40:74
  3   | (17/17) Accurately ripped
  4   | (17/17) Accurately ripped
  5   | (17/17) Accurately ripped
  6   | (17/17) Accurately ripped
  7   | (17/17) Accurately ripped
  8   | (17/17) Accurately ripped
  9   | (17/17) Accurately ripped
 10   | (17/17) Accurately ripped
 11   | (17/17) Accurately ripped
 12   | (17/17) Accurately ripped
 13   | (16/17) Accurately ripped, or (1/17) differs in 30 samples @00:18:29-00:18:30,00:18:48
[AccurateRip ID: 00175f87-00e7ea2d-c40ae20d] found.
Track   [  CRC   |   V2   ] Status
 01     [29e4a1d2|fd0507e6] (37+18/82) Accurately ripped
 02     [ea747869|a9cef23f] (36+18/84) Accurately ripped
 03     [5d745296|fff79d73] (35+18/83) Accurately ripped
 04     [570c32f8|845e2544] (36+19/85) Accurately ripped
 05     [d0c2fff2|5c98f050] (35+18/83) Accurately ripped
 06     [a36367b8|2830f8fb] (36+18/84) Accurately ripped
 07     [d6f86019|9fee7523] (36+18/84) Accurately ripped
 08     [192daf85|2a4b07e7] (35+18/83) Accurately ripped
 09     [7e5129a8|0a5345dd] (35+18/83) Accurately ripped
 10     [0066a997|55eba849] (37+19/84) Accurately ripped
 11     [47ac33db|1e1152da] (35+18/81) Accurately ripped
 12     [2e384540|3ff4b075] (35+18/83) Accurately ripped
 13     [ffa915ee|fb8fee39] (35+18/81) Accurately ripped
Offsetted by -66:
 01     [d2b18566] (03/82) Accurately ripped
 02     [671faa65] (03/84) Accurately ripped
 03     [c73222cc] (03/83) Accurately ripped
 04     [fd9eb9cc] (03/85) Accurately ripped
 05     [a4770438] (03/83) Accurately ripped
 06     [310846c6] (03/84) Accurately ripped
 07     [6c341431] (03/84) Accurately ripped
 08     [92395fb9] (03/83) Accurately ripped
 09     [6ec939ac] (03/83) Accurately ripped
 10     [0eb46ddd] (03/84) Accurately ripped
 11     [7a8b5e37] (03/81) Accurately ripped
 12     [4c1085c0] (03/83) Accurately ripped
 13     [8eb39f88] (00/81) No match (V2 was not tested)
Offsetted by -18:
 01     [9dbf6b86] (00/82) No match (V2 was not tested)
 02     [e3ad6926] (00/84) No match (V2 was not tested)
 03     [e54339eb] (00/83) No match (V2 was not tested)
 04     [f8d711ec] (00/85) No match (V2 was not tested)
 05     [50512fa8] (00/83) No match (V2 was not tested)
 06     [84334776] (00/84) No match (V2 was not tested)
 07     [8b4e79f1] (00/84) No match (V2 was not tested)
 08     [ae8df6d9] (00/83) No match (V2 was not tested)
 09     [bfe6454c] (00/83) No match (V2 was not tested)
 10     [6164994d] (00/84) No match (V2 was not tested)
 11     [558bf997] (00/81) No match (V2 was not tested)
 12     [365bf9c0] (00/83) No match (V2 was not tested)
 13     [3df1c718] (00/81) No match (V2 was not tested)
Offsetted by 6:
 01     [03465e96] (00/82) No match
 02     [6e3b812a] (00/84) No match (V2 was not tested)
 03     [34be0aef] (00/83) No match (V2 was not tested)
 04     [76733dfc] (00/85) No match (V2 was not tested)
 05     [a63e4560] (00/83) No match (V2 was not tested)
 06     [adc8c7ce] (00/84) No match (V2 was not tested)
 07     [9adbacd1] (00/84) No match (V2 was not tested)
 08     [3cb84269] (00/83) No match (V2 was not tested)
 09     [6874cb1c] (00/83) No match (V2 was not tested)
 10     [8abcaf05] (00/84) No match
 11     [430c4747] (00/81) No match
 12     [2b81b3c0] (00/83) No match (V2 was not tested)
 13     [9590dae0] (00/81) No match
Offsetted by 455:
 01     [64030c8c] (02/82) Accurately ripped
 02     [669c22cf] (00/84) No match (V2 was not tested)
 03     [56861e59] (02/83) Accurately ripped
 04     [f9bcf652] (02/85) Accurately ripped
 05     [631c665d] (02/83) Accurately ripped
 06     [e26b08e7] (02/84) Accurately ripped
 07     [8877ef45] (02/84) Accurately ripped
 08     [4b0f880f] (02/83) Accurately ripped
 09     [59df27da] (02/83) Accurately ripped
 10     [7ae1f002] (02/84) Accurately ripped
 11     [be4c9f59] (02/81) Accurately ripped
 12     [35ce2b80] (02/83) Accurately ripped
 13     [bcd0ecf3] (02/81) Accurately ripped
Offsetted by 541:
 01     [e5269e30] (13/82) Accurately ripped
 02     [7949d53b] (00/84) No match (V2 was not tested)
 03     [8a991457] (13/83) Accurately ripped
 04     [112c9436] (13/85) Accurately ripped
 05     [ac589edb] (13/83) Accurately ripped
 06     [221814cd] (13/84) Accurately ripped
 07     [2adc903d] (13/84) Accurately ripped
 08     [f32716d3] (13/83) Accurately ripped
 09     [75dddcae] (13/83) Accurately ripped
 10     [39b2e880] (13/84) Accurately ripped
 11     [d1586065] (13/81) Accurately ripped
 12     [64400600] (13/83) Accurately ripped
 13     [76caf3d5] (13/81) Accurately ripped

Track Peak [ CRC32  ] [W/O NULL] [  LOG   ]
 --  100,0 [470B8BF6] [3D63C400]   CRC32
 01  100,0 [6151B7AD] [7F33717A]
 02   98,9 [1FAD45ED] [D909AA28]
 03  100,0 [9C4D1783] [3A99BDC1]
 04   99,2 [7014A352] [9DB5412B]
 05  100,0 [34CD2FC3] [06A482FF]
 06  100,0 [AAD2C900] [7EC98ACA]
 07   77,2 [686DF7F6] [352E2D31]
 08  100,0 [2AF3D583] [8AAF8F6D]
 09   63,4 [B0BC892B] [9E4BAB4C]
 10  100,0 [C0DEF1DE] [C37FE4B6]
 11   47,1 [8474B790] [81D73561]
 12  100,0 [7652C208] [08F87801]
 13   99,8 [46632FEA] [300ECDFE]

Правила, инструкции, FAQ!!!
Торрент  Добавлен [16 мар 2014, 00:08] Скачать торрент Магнет ссылка
Скачать торрент
[ Размер 13.46 КБ / Просмотров 83 ]

Статус  
 
Размер  306.45 МБ
Приватный: Нет (DHT включён)
.torrent скачан  0
 


     Отправить личное сообщение
   
Страница 1 из 1
Показать сообщения за:  Поле сортировки  
Начать новую тему Ответить на тему


Сейчас этот форум просматривают: нет зарегистрированных пользователей и гости: 0


Вы не можете начинать темы
Вы не можете отвечать на сообщения
Вы не можете редактировать свои сообщения
Вы не можете удалять свои сообщения
Вы не можете добавлять вложения

Перейти:  
cron
cron