Начать новую тему Ответить на тему
Статистика раздачи
Размер: 357.16 МБ | Добавлен: 16 мар 2014, 00:07 | Скачали: 0
Сидеров: 1  [0 байт/сек]    Личеров: 2  [0 байт/сек]
Пред. тема | След. тема 

Автор
Сообщение

СообщениеДобавлено: 16 мар 2014, 00:07 

Ответить с цитатой 

John Lennon - Mind Games (1973)

Год: 1973
Жанр: Rock
Лейбл: Mobile Fidelity Sound Lab
Каталог #: UDCD 761
Продолжительность: 00:48:05
Кодек: FLAC
Тип рипа: image + .cue
Битрейт: Lossless
Треклист:
01. Mind Games (4:14)
02. Tight A$ (3:37)
03. Aisumasen (I'm Sorry) (4:44)
04. One Day (At a Time) (3:09)
05. Bring on the Lucie (Freda Peeple) (4:12)
06. Nutopian International Anthem (0:06)
07. Intuition (3:09)
08. Out of the Blue (3:22)
09. Only People (3:23)
10. I Know (I Know) (3:49)
11. You Are Here (4:11)
12. Meat City (2:51)
13. Aisumasen (I'm Sorry) (Home Version, Bonus Track) (3:36)
14. Bring on the Lucie (Freda Peeple) (Home Version, Bonus Track) (1:03)
15. Meat City (Home Version, Bonus Track) (2:36)
Код:
Код:
Exact Audio Copy V1.0 beta 3 from 29. August 2011

EAC extraction logfile from 29. December 2013, 10:20

John Lennon / Mind Games (MFSL UDCD 761)

Used drive  : PLEXTOR DVDR   PX-891SA   Adapter: 3  ID: 0

Read mode               : Secure
Utilize accurate stream : Yes
Defeat audio cache      : Yes
Make use of C2 pointers : No

Read offset correction                      : 6
Overread into Lead-In and Lead-Out          : No
Fill up missing offset samples with silence : Yes
Delete leading and trailing silent blocks   : No
Null samples used in CRC calculations       : Yes
Used interface                              : Native Win32 interface for Win NT & 2000

Used output format              : User Defined Encoder
Selected bitrate                : 1024 kBit/s
Quality                         : High
Add ID3 tag                     : No
Command line compressor         : C:\Program Files\Exact Audio Copy\Flac\flac.exe
Additional command line options : -V -8 -T "Genre=%genre%" -T "Artist=%artist%" -T "Title=%title%" -T "Album=%albumtitle%" -T "Date=%year%" -T "Tracknumber=%tracknr%" -T "Comment=%comment%" %source%

TOC of the extracted CD

     Track |   Start  |  Length  | Start sector | End sector
    ---------------------------------------------------------
        1  |  0:00.00 |  4:14.12 |         0    |    19061
        2  |  4:14.12 |  3:36.70 |     19062    |    35331
        3  |  7:51.07 |  4:44.08 |     35332    |    56639
        4  | 12:35.15 |  3:09.17 |     56640    |    70831
        5  | 15:44.32 |  4:11.53 |     70832    |    89709
        6  | 19:56.10 |  0:06.35 |     89710    |    90194
        7  | 20:02.45 |  3:09.25 |     90195    |   104394
        8  | 23:11.70 |  3:22.32 |    104395    |   119576
        9  | 26:34.27 |  3:23.13 |    119577    |   134814
       10  | 29:57.40 |  3:49.15 |    134815    |   152004
       11  | 33:46.55 |  4:10.65 |    152005    |   170819
       12  | 37:57.45 |  2:51.00 |    170820    |   183644
       13  | 40:48.45 |  3:35.65 |    183645    |   199834
       14  | 44:24.35 |  1:02.45 |    199835    |   204529
       15  | 45:27.05 |  2:35.62 |    204530    |   216216

Range status and errors

Selected range

     Filename H:\dafnaplus\John Lennon - Mind Games\John Lennon - Mind Games (MFSL UDCD 761).wav

     Peak level 100.0 %
     Extraction speed 5.7 X
     Range quality 100.0 %
     Test CRC EDF28EE3
     Copy CRC EDF28EE3
     Copy OK

No errors occurred

AccurateRip summary

Track  1  accurately ripped (confidence 21)  [9C149DE0]  (AR v2)
Track  2  accurately ripped (confidence 21)  [3FB1FCDE]  (AR v2)
Track  3  accurately ripped (confidence 21)  [35D4B33D]  (AR v2)
Track  4  accurately ripped (confidence 21)  [2432A889]  (AR v2)
Track  5  accurately ripped (confidence 21)  [EC765B89]  (AR v2)
Track  6  accurately ripped (confidence 21)  [3BB73ABC]  (AR v2)
Track  7  accurately ripped (confidence 21)  [FF0CA3D4]  (AR v2)
Track  8  accurately ripped (confidence 21)  [CF29D704]  (AR v2)
Track  9  accurately ripped (confidence 21)  [AFE07431]  (AR v2)
Track 10  accurately ripped (confidence 21)  [4956AF5B]  (AR v2)
Track 11  accurately ripped (confidence 21)  [A151CED8]  (AR v2)
Track 12  accurately ripped (confidence 21)  [161E2449]  (AR v2)
Track 13  accurately ripped (confidence 21)  [EFB12BF2]  (AR v2)
Track 14  accurately ripped (confidence 21)  [AAE0130B]  (AR v2)
Track 15  accurately ripped (confidence 21)  [3AE50C4F]  (AR v2)

All tracks accurately ripped

End of status report

==== Log checksum 69C55D6E7F81CCDE9B8B8E355307B645EC17A7DB5C00C69928834552F8B7EAD5 ====

Код:
Код:
-----------------------

DON'T MODIFY THIS FILE

-----------------------

PERFORMER: auCDtect Task Manager, ver. 1.6.0 RC1 build 1.6.0.1
Copyright (c) 2008-2010 y-soft. All rights reserved
http:/y-soft.org

ANALYZER: auCDtect: CD records authenticity detector, version 0.8.2
Copyright (c) 2004 Oleg Berngardt. All rights reserved.
Copyright (c) 2004 Alexander Djourik. All rights reserved.

FILE: John Lennon - Mind Games (MFSL UDCD 761).flac
  Size: 291744366 Hash: 87021F0A193FABC954B09B29278D5A0D Accuracy: -m0
  Conclusion: CDDA 100%
  Signature: 7247448202F3E0CA00270AC9DC15B3A48FEDC900

Код:
Код:
REM GENRE Rock
REM DATE 2002
REM DISCID EF0B420F
REM COMMENT "ExactAudioCopy v1.0b3"
PERFORMER "John Lennon"
TITLE "Mind Games (MFSL UDCD 761)"
FILE "John Lennon - Mind Games (MFSL UDCD 761).flac" WAVE
  TRACK 01 AUDIO
    TITLE "Mind Games"
    PERFORMER "John Lennon"
    INDEX 01 00:00:00
  TRACK 02 AUDIO
    TITLE "Tight A$"
    PERFORMER "John Lennon"
    INDEX 01 04:14:12
  TRACK 03 AUDIO
    TITLE "Aisumasen (I'm Sorry)"
    PERFORMER "John Lennon"
    INDEX 00 07:49:32
    INDEX 01 07:51:07
  TRACK 04 AUDIO
    TITLE "One Day (At a Time)"
    PERFORMER "John Lennon"
    INDEX 01 12:35:15
  TRACK 05 AUDIO
    TITLE "Bring on the Lucie (Freda Peeple)"
    PERFORMER "John Lennon"
    INDEX 00 15:42:30
    INDEX 01 15:44:32
  TRACK 06 AUDIO
    TITLE "Nutopian International Anthem"
    PERFORMER "John Lennon"
    INDEX 01 19:56:10
  TRACK 07 AUDIO
    TITLE "Intuition"
    PERFORMER "John Lennon"
    INDEX 01 20:02:45
  TRACK 08 AUDIO
    TITLE "Out of the Blue"
    PERFORMER "John Lennon"
    INDEX 00 23:09:62
    INDEX 01 23:11:70
  TRACK 09 AUDIO
    TITLE "Only People"
    PERFORMER "John Lennon"
    INDEX 01 26:34:27
  TRACK 10 AUDIO
    TITLE "I Know (I Know)"
    PERFORMER "John Lennon"
    INDEX 00 29:56:32
    INDEX 01 29:57:40
  TRACK 11 AUDIO
    TITLE "You Are Here"
    PERFORMER "John Lennon"
    INDEX 01 33:46:55
  TRACK 12 AUDIO
    TITLE "Meat City"
    PERFORMER "John Lennon"
    INDEX 00 37:53:67
    INDEX 01 37:57:45
  TRACK 13 AUDIO
    TITLE "Aisumasen (I'm Sorry) (Home Version, Bonus Track)"
    PERFORMER "John Lennon"
    INDEX 00 40:44:70
    INDEX 01 40:48:45
  TRACK 14 AUDIO
    TITLE "Bring on the Lucie (Freda Peeple) (Home Version, Bonus Track)"
    PERFORMER "John Lennon"
    INDEX 01 44:24:35
  TRACK 15 AUDIO
    TITLE "Meat City (Home Version, Bonus Track)"
    PERFORMER "John Lennon"
    INDEX 00 45:25:72
    INDEX 01 45:27:05

Код:
Код:
[CUETools log; Date: 10.01.2014 8:37:11; Version: 2.1.4]
[CTDB TOCID: uMKsfAGAvLZi2ifkzMxCANnstT8-] found.
Track | CTDB Status
  1   | (8/8) Accurately ripped
  2   | (8/8) Accurately ripped
  3   | (8/8) Accurately ripped
  4   | (8/8) Accurately ripped
  5   | (8/8) Accurately ripped
  6   | (8/8) Accurately ripped
  7   | (8/8) Accurately ripped
  8   | (8/8) Accurately ripped
  9   | (8/8) Accurately ripped
 10   | (8/8) Accurately ripped
 11   | (8/8) Accurately ripped
 12   | (8/8) Accurately ripped
 13   | (8/8) Accurately ripped
 14   | (8/8) Accurately ripped
 15   | (8/8) Accurately ripped
[AccurateRip ID: 001c313a-013a2749-ef0b420f] found.
Track   [  CRC   |   V2   ] Status
 01     [cc27168f|9c149de0] (39+21/67) Accurately ripped
 02     [dcbc2f68|3fb1fcde] (39+21/67) Accurately ripped
 03     [c8796a41|35d4b33d] (38+21/66) Accurately ripped
 04     [17f3d077|2432a889] (39+21/67) Accurately ripped
 05     [28cc10f7|ec765b89] (38+21/66) Accurately ripped
 06     [c4e519f1|3bb73abc] (38+21/66) Accurately ripped
 07     [2c5ff984|ff0ca3d4] (39+21/67) Accurately ripped
 08     [2e038e55|cf29d704] (39+21/67) Accurately ripped
 09     [1afd1f51|afe07431] (38+21/66) Accurately ripped
 10     [8f9c68cc|4956af5b] (38+21/66) Accurately ripped
 11     [ae17e113|a151ced8] (39+21/67) Accurately ripped
 12     [e28e5f1c|161e2449] (38+21/66) Accurately ripped
 13     [50e23043|efb12bf2] (38+21/66) Accurately ripped
 14     [c3cbe961|aae0130b] (38+21/66) Accurately ripped
 15     [64bfb53d|3ae50c4f] (38+21/66) Accurately ripped
Offsetted by -664:
 01     [1083d9af] (03/67) Accurately ripped
 02     [f6d37038] (03/67) Accurately ripped
 03     [4ee5dc71] (03/66) Accurately ripped
 04     [19f1ca97] (03/67) Accurately ripped
 05     [eb0492be] (03/66) Accurately ripped
 06     [3f682554] (03/66) Accurately ripped
 07     [0f052c6e] (03/67) Accurately ripped
 08     [5fe2511d] (03/67) Accurately ripped
 09     [3b8fcf49] (03/66) Accurately ripped
 10     [8dbfeeac] (03/66) Accurately ripped
 11     [9c06d0d3] (03/67) Accurately ripped
 12     [d4f20ec4] (03/66) Accurately ripped
 13     [42d4bbdb] (03/66) Accurately ripped
 14     [4a68b119] (03/66) Accurately ripped
 15     [87da42cd] (03/66) Accurately ripped
Offsetted by -12:
 01     [9769891f] (02/67) Accurately ripped
 02     [58948250] (02/67) Accurately ripped
 03     [b865c8d9] (02/66) Accurately ripped
 04     [55acd687] (02/67) Accurately ripped
 05     [666685f3] (02/66) Accurately ripped
 06     [0b69d481] (02/66) Accurately ripped
 07     [40ea1da8] (02/67) Accurately ripped
 08     [83bc03f9] (02/67) Accurately ripped
 09     [e724c90d] (02/66) Accurately ripped
 10     [23a022bc] (02/66) Accurately ripped
 11     [cb1166f3] (02/67) Accurately ripped
 12     [ba36ba30] (02/66) Accurately ripped
 13     [ec637ccf] (02/66) Accurately ripped
 14     [bcf9ecfd] (02/66) Accurately ripped
 15     [4cb56485] (02/66) Accurately ripped
Offsetted by -18:
 01     [fd0ac267] (00/67) No match (V2 was not tested)
 02     [9680abc4] (00/67) No match (V2 was not tested)
 03     [305bf825] (00/66) No match (V2 was not tested)
 04     [f489598f] (00/67) No match (V2 was not tested)
 05     [96f45156] (00/66) No match (V2 was not tested)
 06     [2e85b180] (00/66) No match
 07     [cb2f2fba] (00/67) No match (V2 was not tested)
 08     [2e983ecb] (00/67) No match (V2 was not tested)
 09     [cd389deb] (00/66) No match (V2 was not tested)
 10     [eda1ffb4] (00/66) No match (V2 was not tested)
 11     [598e29e3] (00/67) No match (V2 was not tested)
 12     [260ae7ba] (00/66) No match (V2 was not tested)
 13     [ba242315] (00/66) No match (V2 was not tested)
 14     [3990eecb] (00/66) No match (V2 was not tested)
 15     [c0b03c29] (00/66) No match (V2 was not tested)

Track Peak [ CRC32  ] [W/O NULL] [  LOG   ]
 --  100,0 [EDF28EE3] [293DA56F]   CRC32
 01   75,5 [A27C3234] [5FB5131A]
 02  100,0 [7AE01041] [1AEF369A]
 03   91,8 [62B5F91D] [984FF647]
 04  100,0 [5D9C2B03] [853600BD]
 05  100,0 [A7CF6088] [3AFA0ED8]
 06    1,8 [5263D813] [13AD3B06]
 07  100,0 [0D6870A7] [0D0BFA0E]
 08   80,7 [511FF108] [C3463B7E]
 09  100,0 [26280E3C] [F0D86127]
 10  100,0 [74BE91E8] [8F02E320]
 11  100,0 [799AB6C4] [B438D20D]
 12  100,0 [23662533] [34264A8F]
 13   75,1 [1E14CBDB] [0D11CFC4]
 14   61,9 [021CC520] [2131C28E]
 15   89,1 [5488AEA7] [A3203DB5]

Правила, инструкции, FAQ!!!
Торрент  Добавлен [16 мар 2014, 00:07] Скачать торрент Магнет ссылка
Скачать торрент
[ Размер 15.96 КБ / Просмотров 26 ]

Статус  
 
Размер  357.16 МБ
Приватный: Нет (DHT включён)
.torrent скачан  0
 


     Отправить личное сообщение
   
Страница 1 из 1
Показать сообщения за:  Поле сортировки  
Начать новую тему Ответить на тему


Сейчас этот форум просматривают: нет зарегистрированных пользователей и гости: 0


Вы не можете начинать темы
Вы не можете отвечать на сообщения
Вы не можете редактировать свои сообщения
Вы не можете удалять свои сообщения
Вы не можете добавлять вложения

Перейти:  
cron