Начать новую тему Ответить на тему
Статистика раздачи
Размер: 374.22 МБ | Добавлен: 05 дек 2013, 10:38 | Скачали: 3
Сидеров: 1  [0 байт/сек]    Личеров: 1  [0 байт/сек]
Пред. тема | След. тема 

Автор
Сообщение

СообщениеДобавлено: 05 дек 2013, 10:38 

Ответить с цитатой 

John Lees' Barclay James Harvest - North (2013)

Год: 2013
Жанр: Progressive Rock
Продолжительность: 00:55:22
Лейбл: Esoteric Antenna
Каталог: EANTCD 1023

Кодек: FLAC (image+.cue + log)
Битрейт: Lossless

Треклист:
01. If You Were Here Now (5:48)
02. Ancient Waves (7:10)
03. In Wonderland (5:49)
04. On Leave (9:11)
05. The Real Deal (5:49)
06. On Top of the World (5:40)
07. Unreservedly Yours (4:51)
08. North (8:29)
09. The End of the Day (2:34)
Код:
Код:
Exact Audio Copy V1.0 beta 3 from 29. August 2011

EAC extraction logfile from 30. October 2013, 23:20

John Lees' Barclay James Harvest / North

Used drive  : ASUS    DRW-24B1LT   Adapter: 4  ID: 0

Read mode               : Secure
Utilize accurate stream : Yes
Defeat audio cache      : Yes
Make use of C2 pointers : No

Read offset correction                      : 6
Overread into Lead-In and Lead-Out          : No
Fill up missing offset samples with silence : Yes
Delete leading and trailing silent blocks   : No
Null samples used in CRC calculations       : Yes
Used interface                              : Native Win32 interface for Win NT & 2000

Used output format              : User Defined Encoder
Selected bitrate                : 1024 kBit/s
Quality                         : High
Add ID3 tag                     : Yes
Command line compressor         : C:\Program Files (x86)\FLAC_1.3.0\flac.exe
Additional command line options : -6 -V -T "ARTIST=%artist%" -T "TITLE=%title%" -T "ALBUM=%albumtitle%" -T "DATE=%year%" -T "TRACKNUMBER=%tracknr%" -T "GENRE=%genre%" -T "COMMENT=%comment%" %source% -o %dest%

TOC of the extracted CD

     Track |   Start  |  Length  | Start sector | End sector
    ---------------------------------------------------------
        1  |  0:00.00 |  5:48.36 |         0    |    26135
        2  |  5:48.36 |  7:10.17 |     26136    |    58402
        3  | 12:58.53 |  5:49.11 |     58403    |    84588
        4  | 18:47.64 |  9:11.01 |     84589    |   125914
        5  | 27:58.65 |  5:48.47 |    125915    |   152061
        6  | 33:47.37 |  5:40.04 |    152062    |   177565
        7  | 39:27.41 |  4:51.05 |    177566    |   199395
        8  | 44:18.46 |  8:29.27 |    199396    |   237597
        9  | 52:47.73 |  2:34.30 |    237598    |   249177

Range status and errors

Selected range

     Filename Y:\EAC\wurensh\BJH\John Lees' Barclay James Harvest - North.wav

     Peak level 99.4 %
     Extraction speed 4.8 X
     Range quality 100.0 %
     Test CRC 30AD4964
     Copy CRC 30AD4964
     Copy OK

No errors occurred

AccurateRip summary

Track  1  not present in database
Track  2  not present in database
Track  3  not present in database
Track  4  not present in database
Track  5  not present in database
Track  6  not present in database
Track  7  not present in database
Track  8  not present in database
Track  9  not present in database

None of the tracks are present in the AccurateRip database

End of status report
Код:
Код:
-----------------------

DON'T MODIFY THIS FILE

-----------------------

PERFORMER: auCDtect Task Manager, ver. 1.5.1RC6 build 1.5.1.7
Copyright (c) 2008-2010 y-soft. All rights reserved
http:/y-soft.org

ANALYZER: auCDtect: CD records authenticity detector, version 0.8.2
Copyright (c) 2004 Oleg Berngardt. All rights reserved.
Copyright (c) 2004 Alexander Djourik. All rights reserved.

FILE: John Lees' Barclay James Harvest - North.flac
  Size: 347952205 Hash: FC7F4E375AF44E87B2343637AEE0C954 Accuracy: -m0
  Conclusion: CDDA 100%
  Signature: 8E210AFBAA8972CC4D5AD5D9F5F350E243704FCA
Правила, инструкции, FAQ!!!
Торрент  Добавлен [05 дек 2013, 10:38] Скачать торрент Магнет ссылка
Скачать торрент
[ Размер 16.16 КБ / Просмотров 48 ]

Статус  
 
Размер  374.22 МБ
Приватный: Нет (DHT включён)
.torrent скачан  3
 


     Отправить личное сообщение
   
Страница 1 из 1
Показать сообщения за:  Поле сортировки  
Начать новую тему Ответить на тему


Сейчас этот форум просматривают: нет зарегистрированных пользователей и гости: 0


Вы не можете начинать темы
Вы не можете отвечать на сообщения
Вы не можете редактировать свои сообщения
Вы не можете удалять свои сообщения
Вы не можете добавлять вложения

Перейти:  
cron
cron