Начать новую тему Ответить на тему
Статистика раздачи
Размер: 367.99 МБ | Добавлен: 16 мар 2014, 00:09 | Скачали: 0
Сидеров: 1  [0 байт/сек]    Личеров: 0  [0 байт/сек]
Пред. тема | След. тема 

Автор
Сообщение

СообщениеДобавлено: 16 мар 2014, 00:09 

Ответить с цитатой 

John Lees - A Major Fancy (1977) Released 1999

Жанр: Rock/Psychedelic Rock/Progressive Rock
Год: 1977
Страна: UK
Released: 1999/UK
Label: Eagle Records
Catalog#: EAGCD107
Аудио кодек: FLAC
Тип рипа: image+.cue
Битрейт аудио: lossless
Продолжительность: 00:52:25
Источник-релизер: vmsn
Scans: в раздаче
Треклист:
01. Untitled No.1 Heritage (7:55)
02. Child Of The Universe (6:17)
03. Kes (A Major Fancy) (2:34)
04. Untitled No.2 (3:53)
05. Sweet Faced Jane (5:05)
06. Witburg Night (5:49)
07. Long Ships (5:21)
08. Untitled No.3 (5:04)
09. Please Be With Me (2:49)
10. Best Of My Love (3:40)
11. You Can't Get It (3:58)

Легендарная британская группа Barclay James Harvest с момента основания в 1966 году и на протяжении всей своей истории состояла всего из четырех человек. Бессменным лидером, основным гитаристом и вокалистом коллектива вплоть до распада в 1998 году всегда оставался Джон Лис (John Lees), сольная карьера которого весьма незначительна, но любителям прогрессивного рока, безусловно, интересна.
Джон Лис родился в 1947 году в городе Олдхэм возле Манчестера. Как это часто бывает, музыкального образования юноша не получил, но, по словам его биографов, брал уроки игры на гитаре с четырнадцатилетнего возраста. После окончания начальной школы Джон продолжает учиться в местной школе искусств, где в 1964 году знакомится со Стюартом «Вулли» Вольштенхольмом (Stuart «Woolly» Wolstenholme). Вместе они начали исполнять рок-н-роллы в духе Эдди Кокрэйна (Eddie Cochran). Но это нехитрое занятие пользовалось популярностью только в стенах учебного заведения, поэтому, окончательно разочаровавшись в танцевальной музыке, друзья постепенно образовывают группу Barclay James Harvest.
Будучи одним из лидеров этого уникального по своему мелодизму коллектива, Джон Лис, естественно, был полон различных идей, не дававших ему покоя. До 1972 года Barclay James Harvest успели записать четыре великолепных альбома, прочно вошедших в историю прогрессивного рока. В этом же году Джон пробует свои силы «на стороне» и записывает сольный альбом «A Major Fancy». К сожалению, будучи связанным контрактными обязательствами с фирмой грамзаписи, музыкант выпустил эту пластинку лишь в 1977 году.
Предполагалось, что в музыкальном плане альбом должен быть более гитарным, чем стиль, в котором играли Barclay James Harvest, где не последнюю роль играли клавишные инструменты. Хоть Джон Лис и неплохой гитарист, но, к счастью, сделать альбом с доминирующей гитарой ему не удалось. Для записи сольной работы Джон пригласил достаточно известных в Англии музыкантов, среди которых были участники Pretty Things, 10cc, а также легендарный Род Эрджент (Rod Argent), что несомненно сыграло свою роль. Как и следовало ожидать, альбом получился очень мелодичным, полным романтизма и легкости, и гитары здесь именно столько, сколько нужно. Для тех, кому небезразлично творчество ранних Barclay James Harvest, этот диск послужит украшением музыкальной коллекции.
После выхода этой действительно отличной пластинки Джон Лис почему-то прекратил экспериментировать с сольными работами и полностью сосредоточился на творчестве Barclay James Harvest.

Personnel:
- John Lees / vocals, guitars
- Wally Waller / bass, melotron, moog, timbals, harmony vocals
- Skip Allen / drums, percussion
- Gordon Edwards / piano
- Graham Preskett / violin, choir and strings arrangement
- Eric Stewart / acoustic guitar (3)
- Kevin Godley / Ashtray, beer bottle and fire extinguisher (4)
- Rod Argent / organ (1)
- Rex Morrison / Tenor saxophone (5)

Guest musicians on CD bonus tracks:
- John Lees / vocals, guitar
- Les Holroyd / bass
- B. J. Cole / slide guitar
- Mike Moran / piano
Код:
Код:
Exact Audio Copy V0.99 prebeta 3 from 28. July 2007

EAC Auslese-Logdatei vom 1. April 2009, 10:33

John Lees / A Major Fancy

Benutztes Laufwerk : _NEC    DVD_RW ND-4571A   Adapter: 1  ID: 0

Lesemodus                      : Sicher
Benutze Accurate Stream        : Ja
Audio Puffer abgeschaltet      : Ja
Benutze C2 Fehlerinformationen : Nein

Leseoffset Korrektur                           : 48
Ьberlesen in das Lead-In und Lead-Out          : Nein
Fьlle fehlende Offsetsample mit Stille auf     : Ja
Lцsche fьhrende und nachfolgende stille Blцcke : Nein
Null Samples gehen in CRC Berechnungen ein     : Nein
Normalisiere auf                               : 98 %
Benutzte Schnittstelle                         : Installierte externe ASPI Schnittstelle

Benutztes Ausgabeformat            : Benutzerdefinierter Komprimierer
Gewдhlte Bitrate                   : 768 kBit/s
Qualitдt                           : Hoch
Fьge ID3 Tag hinzu                 : Nein
Kommandozeilen Komprimierer        : C:\Programme\Exact Audio Copy\FLAC\FLAC.EXE
Zusдtzliche Kommandozeilenoptionen : -6 -V -T "ARTIST=%a" -T "TITLE=%t" -T "ALBUM=%g" -T "DATE=%y" -T "TRACKNUMBER=%n" -T "GENRE=%m" -T "COMMENT=%e" %s -o %d

TOC der ausgelesenen CD

     Track |   Start  |   Lдnge  | Startsektor | Endsektor
    -------------------------------------------------------
        1  |  0:00.00 |  7:55.07 |        0    |   35631
        2  |  7:55.07 |  6:17.22 |    35632    |   63928
        3  | 14:12.29 |  2:33.43 |    63929    |   75446
        4  | 16:45.72 |  3:52.61 |    75447    |   92907
        5  | 20:38.58 |  5:05.11 |    92908    |  115793
        6  | 25:43.69 |  5:48.42 |   115794    |  141935
        7  | 31:32.36 |  5:21.22 |   141936    |  166032
        8  | 36:53.58 |  5:03.44 |   166033    |  188801
        9  | 41:57.27 |  2:49.32 |   188802    |  201508
       10  | 44:46.59 |  3:40.32 |   201509    |  218040
       11  | 48:27.16 |  3:57.47 |   218041    |  235862

Bereichsstatus und Fehler

Gewдhlter Bereich

     Dateiname E:\New Folder 1\John Lees - A Major Fancy.wav

     Spitzenpegel 100.0 %
     Bereichsqualitдt 100.0 %
     Kopie CRC 2068E862
     Kopie OK

Keine Fehler aufgetreten

Ende des Statusreports
Код:
Код:
-----------------------

DON'T MODIFY THIS FILE

-----------------------

PERFORMER: auCDtect Task Manager, ver. 1.6.0 RC1 build 1.6.0.1
Copyright (c) 2008-2010 y-soft. All rights reserved
http:/y-soft.org

ANALYZER: auCDtect: CD records authenticity detector, version 0.8.2
Copyright (c) 2004 Oleg Berngardt. All rights reserved.
Copyright (c) 2004 Alexander Djourik. All rights reserved.

FILE: John Lees - A Major Fancy.flac
  Size: 379713134 Hash: B3F062C37C7D6253E5A04E80A0920E20 Accuracy: -m0
  Conclusion: CDDA 100%
  Signature: 6006FF7FA3BAB8C2009017807F21F35B0450BAB2
Правила, инструкции, FAQ!!!
Торрент  Добавлен [16 мар 2014, 00:09] Скачать торрент Магнет ссылка
Скачать торрент
[ Размер 15.52 КБ / Просмотров 41 ]

Статус  
 
Размер  367.99 МБ
Приватный: Нет (DHT включён)
.torrent скачан  0
 


     Отправить личное сообщение
   
Страница 1 из 1
Показать сообщения за:  Поле сортировки  
Начать новую тему Ответить на тему


Сейчас этот форум просматривают: нет зарегистрированных пользователей и гости: 0


Вы не можете начинать темы
Вы не можете отвечать на сообщения
Вы не можете редактировать свои сообщения
Вы не можете удалять свои сообщения
Вы не можете добавлять вложения

Перейти:  
cron