Начать новую тему Ответить на тему
Статистика раздачи
Размер: 505.57 МБ | Добавлен: 16 мар 2014, 00:16 | Скачали: 0
Сидеров: 1  [0 байт/сек]    Личеров: 0  [0 байт/сек]
Пред. тема | След. тема 

Автор
Сообщение

СообщениеДобавлено: 16 мар 2014, 00:16 

Ответить с цитатой 

John Fogerty - Wrote A Song For Everyone (2013)

Год: 2013
Страна-производитель диска: EU
Издатель (лейбл): Vanguard
Номер по каталогу #: 88765487152
Жанр: Classic Rock
Продолжительность: 00:59:40

Кодек: FLAC(*.flac)
Битрейт: Lossless
Тип рипа: image+.cue
Спасибо: gerrV

Треклист:
01. Fortunate Son (with Foo Fighters) - 3:31
02. Almost Saturday Night (with Keith Urban) - 3:18
03. Lodi (with Shane Fogerty & Tyler Fogerty) - 4:20
04. Mystic Highway - 6:05
05. Wrote A Song For Everyone (with Miranda Lambert featuring Tom Morello) - 4:01
06. Bad Moon Rising (with Zac Brown Band) - 2:55
07. Long As I Can See The Light (with My Morning Jacket) - 4:49
08. Born On The Bayou (with Kid Rock) - 4:46
09. Train Of Fools - 4:42
10. Someday Never Comes (with Dawes) - 5:17
11. Who'll Stop The Rain (with Bob Seger) - 3:13
12. Hot Rod Heart (with Brad Paisley) - 5:00
13. Have You Ever Seen The Rain (with Alan Jackson) - 3:18
14. Proud Mary (with Jennifer Hudson featuring Allen Toussaint & Rebirth Brass Band) - 4:26
Wrote A Song For Everyone - 9-ой студийный альбом John Fogerty , выпуск которого приурочен к 68-ми летию автора 28 мая 2013 года. Альбом состоит как из коллекции классических хитов проверенных временем, так из двух новых песен Mystic Highway и Train of Fools. Альбом записан в содружестве с различными исполнителями: Foo Fighters, Keith Urban, Miranda Lambert, Tom Morello, Zac Brown Band, My Morning Jacket, Kid Rock, Dawes, Bob Seger, Brad Paisley, Alan Jackson, Allen Toussaint & Rebirth Brass Band, а так же с двумя сыновьями Shane Fogerty & Tyler Fogerty.
Код:
Код:
Exact Audio Copy V1.0 beta 3 from 29. August 2011

EAC extraction logfile from 11. July 2013, 8:55

John Fogerty / Wrote A Song For Everyone

Used drive  : ATAPI   iHAS124   B   Adapter: 2  ID: 0

Read mode               : Secure
Utilize accurate stream : Yes
Defeat audio cache      : Yes
Make use of C2 pointers : No

Read offset correction                      : 6
Overread into Lead-In and Lead-Out          : No
Fill up missing offset samples with silence : Yes
Delete leading and trailing silent blocks   : No
Null samples used in CRC calculations       : Yes
Used interface                              : Native Win32 interface for Win NT & 2000

Used output format              : User Defined Encoder
Selected bitrate                : 1024 kBit/s
Quality                         : High
Add ID3 tag                     : No
Command line compressor         : C:\Program Files (x86)\Exact Audio Copy\FLAC\FLAC.EXE
Additional command line options : -8 -V -T "ARTIST=%artist%" -T "TITLE=%title%" -T "ALBUM=%albumtitle%" -T "DATE=%year%" -T "TRACKNUMBER=%tracknr%" -T "GENRE=%genre%" -T "PERFORMER=%albuminterpret%" -T "COMPOSER=%composer%" %haslyrics%--tag-from-file=LYRICS="%lyricsfile%"%haslyrics% -T "ALBUMARTIST=%albumartist%" -T "DISCNUMBER=%cdnumber%" -T "TOTALDISCS=%totalcds%" -T "TOTALTRACKS=%numtracks%" -T "COMMENT=%comment%" %source% -o %dest%

TOC of the extracted CD

     Track |   Start  |  Length  | Start sector | End sector
    ---------------------------------------------------------
        1  |  0:00.00 |  3:30.42 |         0    |    15791
        2  |  3:30.42 |  3:17.73 |     15792    |    30639
        3  |  6:48.40 |  4:19.44 |     30640    |    50108
        4  | 11:08.09 |  6:05.15 |     50109    |    77498
        5  | 17:13.24 |  4:01.30 |     77499    |    95603
        6  | 21:14.54 |  2:54.73 |     95604    |   108726
        7  | 24:09.52 |  4:49.28 |    108727    |   130429
        8  | 28:59.05 |  4:46.17 |    130430    |   151896
        9  | 33:45.22 |  4:41.60 |    151897    |   173031
       10  | 38:27.07 |  5:16.44 |    173032    |   196775
       11  | 43:43.51 |  3:12.38 |    196776    |   211213
       12  | 46:56.14 |  4:59.73 |    211214    |   233711
       13  | 51:56.12 |  3:17.74 |    233712    |   248560
       14  | 55:14.11 |  4:25.74 |    248561    |   268509

Range status and errors

Selected range

     Filename G:\CD\John Fogerty - Wrote A Song For Everyone.wav

     Peak level 100.0 %
     Extraction speed 6.0 X
     Range quality 100.0 %
     Test CRC C32BDD90
     Copy CRC C32BDD90
     Copy OK

No errors occurred

AccurateRip summary

Track  1  not present in database
Track  2  not present in database
Track  3  not present in database
Track  4  not present in database
Track  5  not present in database
Track  6  not present in database
Track  7  not present in database
Track  8  not present in database
Track  9  not present in database
Track 10  not present in database
Track 11  not present in database
Track 12  not present in database
Track 13  not present in database
Track 14  not present in database

None of the tracks are present in the AccurateRip database

End of status report

==== Log checksum 27913309B7CE0AC30745513C2EF9468BED405A41F9509DB71DDBBDE59AE4AFBD ====
Код:
Код:
-----------------------

DON'T MODIFY THIS FILE

-----------------------

PERFORMER: auCDtect Task Manager, ver. 1.6.0 RC1 build 1.6.0.1
Copyright (c) 2008-2010 y-soft. All rights reserved
http:/y-soft.org

ANALYZER: auCDtect: CD records authenticity detector, version 0.8.2
Copyright (c) 2004 Oleg Berngardt. All rights reserved.
Copyright (c) 2004 Alexander Djourik. All rights reserved.

FILE: John Fogerty - Wrote A Song For Everyone.flac
  Size: 431862110 Hash: F1AF8A0CC81CE3F788C4F71146F516A6 Accuracy: -m0
  Conclusion: MPEG 95%
  Signature: 35D6F710701D044D78185719B2CC96E267152BA8
Код:
Код:
REM GENRE Rock
REM DATE 2013
REM DISCID 9F0DFC0E
REM COMMENT "ExactAudioCopy v1.0b3"
PERFORMER "John Fogerty"
TITLE "Wrote A Song For Everyone"
FILE "John Fogerty - Wrote A Song For Everyone.flac" WAVE
  TRACK 01 AUDIO
    TITLE "Fortunate Son [with Foo Fighters]"
    PERFORMER "John Fogerty"
    INDEX 01 00:00:00
  TRACK 02 AUDIO
    TITLE "Almost Saturday Night [with Keith Urban]"
    PERFORMER "John Fogerty"
    INDEX 00 03:29:53
    INDEX 01 03:30:42
  TRACK 03 AUDIO
    TITLE "Lodi [with Shane Fogerty & Tyler Fogerty]"
    PERFORMER "John Fogerty"
    INDEX 01 06:48:40
  TRACK 04 AUDIO
    TITLE "Mystic Highway"
    PERFORMER "John Fogerty"
    INDEX 01 11:08:09
  TRACK 05 AUDIO
    TITLE "Wrote A Song For Everyone [with Miranda Lambert featuring Tom Morello]"
    PERFORMER "John Fogerty"
    INDEX 00 17:10:59
    INDEX 01 17:13:24
  TRACK 06 AUDIO
    TITLE "Bad Moon Rising [with Zac Brown Band]"
    PERFORMER "John Fogerty"
    INDEX 01 21:14:54
  TRACK 07 AUDIO
    TITLE "Long As I Can See The Light [with My Morning Jacket]"
    PERFORMER "John Fogerty"
    INDEX 01 24:09:52
  TRACK 08 AUDIO
    TITLE "Born On The Bayou [with Kid Rock]"
    PERFORMER "John Fogerty"
    INDEX 01 28:59:05
  TRACK 09 AUDIO
    TITLE "Train Of Fools"
    PERFORMER "John Fogerty"
    INDEX 00 33:44:38
    INDEX 01 33:45:22
  TRACK 10 AUDIO
    TITLE "Someday Never Comes [with Dawes]"
    PERFORMER "John Fogerty"
    INDEX 00 38:25:59
    INDEX 01 38:27:07
  TRACK 11 AUDIO
    TITLE "Who'll Stop The Rain [with Bob Seger]"
    PERFORMER "John Fogerty"
    INDEX 00 43:42:50
    INDEX 01 43:43:51
  TRACK 12 AUDIO
    TITLE "Hot Rod Heart [with Brad Paisley]"
    PERFORMER "John Fogerty"
    INDEX 01 46:56:14
  TRACK 13 AUDIO
    TITLE "Have You Ever Seen The Rain [with Alan Jackson]"
    PERFORMER "John Fogerty"
    INDEX 00 51:55:01
    INDEX 01 51:56:12
  TRACK 14 AUDIO
    TITLE "Proud Mary [with Jennifer Hudson featuring Allen Toussaint & Rebirth Brass Band]"
    PERFORMER "John Fogerty"
    INDEX 00 55:12:42
    INDEX 01 55:14:11

Правила, инструкции, FAQ!!!
Торрент  Добавлен [16 мар 2014, 00:16] Скачать торрент Магнет ссылка
Скачать торрент
[ Размер 21.79 КБ / Просмотров 75 ]

Статус  
 
Размер  505.57 МБ
Приватный: Нет (DHT включён)
.torrent скачан  0
 


     Отправить личное сообщение
   
Страница 1 из 1
Показать сообщения за:  Поле сортировки  
Начать новую тему Ответить на тему


Сейчас этот форум просматривают: нет зарегистрированных пользователей и гости: 0


Вы не можете начинать темы
Вы не можете отвечать на сообщения
Вы не можете редактировать свои сообщения
Вы не можете удалять свои сообщения
Вы не можете добавлять вложения

Перейти:  
cron