Начать новую тему Ответить на тему
Статистика раздачи
Размер: 1 ГБ | Добавлен: 16 мар 2014, 00:10 | Скачали: 4
Сидеров: 4  [0 байт/сек]    Личеров: 2  [0 байт/сек]
Пред. тема | След. тема 

Автор
Сообщение

СообщениеДобавлено: 16 мар 2014, 00:10 

Ответить с цитатой 

Joe Satriani - The Electric Joe Satriani An Anthology (2003)

Год: 2003
Жанр: Instrumental Rock
Продолжительность: 02:24:28
Лейбл: Epic Records
Каталог: 5138692

Кодек: FLAC (image+.cue + log)
Битрейт: Lossless
#777Трек лист:
01. Surfing With The Alien (4:26)
02. Satch Boogie (3:14)
03. Always With Me, Always With You (3:23)
04. Crushing Day (5:16)
05. Flying In A Blue Dream (5:24)
06. The Mystical Potato Head Groove Thing (5:11)
07. I Believe (5:53)
08. Big Bad Moon (5:17)
09. Friends (3:30)
10. The Extremist (3:45)
11. Summer Song (4:59)
12. Why (4:47)
13. Time Machine (5:08)
14. Cool #9 (6:01)
15. Down, Down, Down (6:11)
Продолжительность – 01:12:26
Код:
Код:
Exact Audio Copy V1.0 beta 3 from 29. August 2011

EAC extraction logfile from 28. March 2012, 11:01

Joe Satriani / The Electric Joe Satriani: An Anthology

Used drive  : HL-DT-STDVDRAM GU10N   Adapter: 3  ID: 0

Read mode               : Secure
Utilize accurate stream : Yes
Defeat audio cache      : Yes
Make use of C2 pointers : No

Read offset correction                      : 667
Overread into Lead-In and Lead-Out          : No
Fill up missing offset samples with silence : Yes
Delete leading and trailing silent blocks   : No
Null samples used in CRC calculations       : Yes
Used interface                              : Native Win32 interface for Win NT & 2000

Used output format : Internal WAV Routines
Sample format      : 44.100 Hz; 16 Bit; Stereo

TOC of the extracted CD

     Track |   Start  |  Length  | Start sector | End sector
    ---------------------------------------------------------
        1  |  0:00.00 |  4:25.67 |         0    |    19941
        2  |  4:25.67 |  3:14.28 |     19942    |    34519
        3  |  7:40.20 |  3:23.22 |     34520    |    49766
        4  | 11:03.42 |  5:15.56 |     49767    |    73447
        5  | 16:19.23 |  5:24.28 |     73448    |    97775
        6  | 21:43.51 |  5:11.02 |     97776    |   121102
        7  | 26:54.53 |  5:52.74 |    121103    |   147576
        8  | 32:47.52 |  5:16.48 |    147577    |   171324
        9  | 38:04.25 |  3:30.22 |    171325    |   187096
       10  | 41:34.47 |  3:44.43 |    187097    |   203939
       11  | 45:19.15 |  4:59.22 |    203940    |   226386
       12  | 50:18.37 |  4:46.73 |    226387    |   247909
       13  | 55:05.35 |  5:08.27 |    247910    |   271036
       14  | 60:13.62 |  6:01.10 |    271037    |   298121
       15  | 66:14.72 |  6:10.49 |    298122    |   325920

Range status and errors

Selected range

     Filename C:\Private\Music - to burn\To backup\Joe Satriani 2003 - The Electric Joe Satriani-An Anthology\Disk 1\Cd1Image.wav

     Peak level 98.8 %
     Extraction speed 4.1 X
     Range quality 100.0 %
     Test CRC 1B27C3B0
     Copy CRC 1B27C3B0
     Copy OK

No errors occurred

AccurateRip summary

Track  1  accurately ripped (confidence 9)  [E60FA9DB]  (AR v1)
Track  2  accurately ripped (confidence 9)  [C9A90845]  (AR v1)
Track  3  accurately ripped (confidence 9)  [1B28690E]  (AR v1)
Track  4  accurately ripped (confidence 8)  [08F0ABC7]  (AR v1)
Track  5  accurately ripped (confidence 8)  [DE6318E8]  (AR v1)
Track  6  accurately ripped (confidence 8)  [420E56A0]  (AR v1)
Track  7  accurately ripped (confidence 8)  [7EF79356]  (AR v1)
Track  8  accurately ripped (confidence 8)  [95412BA4]  (AR v1)
Track  9  accurately ripped (confidence 9)  [AE95B080]  (AR v1)
Track 10  accurately ripped (confidence 9)  [7DD39312]  (AR v1)
Track 11  accurately ripped (confidence 9)  [85F72E9C]  (AR v1)
Track 12  accurately ripped (confidence 9)  [66A0791E]  (AR v1)
Track 13  accurately ripped (confidence 9)  [AB2F353B]  (AR v1)
Track 14  accurately ripped (confidence 8)  [BE5681F3]  (AR v1)
Track 15  accurately ripped (confidence 8)  [B9F4DEFB]  (AR v1)

All tracks accurately ripped

End of status report
 
Код:
Код:
-----------------------

DON'T MODIFY THIS FILE

-----------------------

PERFORMER: auCDtect Task Manager, ver. 1.5.1RC6 build 1.5.1.7
Copyright (c) 2008-2010 y-soft. All rights reserved
http:/y-soft.org

ANALYZER: auCDtect: CD records authenticity detector, version 0.8.2
Copyright (c) 2004 Oleg Berngardt. All rights reserved.
Copyright (c) 2004 Alexander Djourik. All rights reserved.

FILE: Cd1Image.flac
  Size: 538388499 Hash: CEA6F23737DBEFC98299C16269DBC585 Accuracy: -m8
  Conclusion: CDDA 100%
  Signature: 775252DB8ED738310B28673B98005C6ADA2CDE53
#777Трек лист:
01. The Crush Of Love (4:22)
02. Ceremony (4:54)
03. Crystal Planet (4:36)
04. Raspberry Jam Delta-V (5:23)
05. Love Thing (3:52)
06. Borg Sex (5:29)
07. Until We Say Goodbye (4:33)
08. Devil's Slide (5:11)
09. Clouds Race Across The Sky (6:14)
10. Starry Night (3:55)
11. Mind Storm (4:12)
12. Slick (3:43)
13. The Eight Steps (5:46)
14. Not Of This Earth (3:59)
15. Rubina (5:52)
Продолжительность – 01:12:02
Код:
Код:
Exact Audio Copy V1.0 beta 3 from 29. August 2011

EAC extraction logfile from 28. March 2012, 11:40

Joe Satriani / The Electric Joe Satriani: An Anthology

Used drive  : HL-DT-STDVDRAM GU10N   Adapter: 3  ID: 0

Read mode               : Secure
Utilize accurate stream : Yes
Defeat audio cache      : Yes
Make use of C2 pointers : No

Read offset correction                      : 667
Overread into Lead-In and Lead-Out          : No
Fill up missing offset samples with silence : Yes
Delete leading and trailing silent blocks   : No
Null samples used in CRC calculations       : Yes
Used interface                              : Native Win32 interface for Win NT & 2000

Used output format : Internal WAV Routines
Sample format      : 44.100 Hz; 16 Bit; Stereo

TOC of the extracted CD

     Track |   Start  |  Length  | Start sector | End sector
    ---------------------------------------------------------
        1  |  0:00.00 |  4:21.70 |         0    |    19644
        2  |  4:21.70 |  4:53.38 |     19645    |    41657
        3  |  9:15.33 |  4:36.24 |     41658    |    62381
        4  | 13:51.57 |  5:22.56 |     62382    |    86587
        5  | 19:14.38 |  3:51.47 |     86588    |   103959
        6  | 23:06.10 |  5:28.47 |    103960    |   128606
        7  | 28:34.57 |  4:33.24 |    128607    |   149105
        8  | 33:08.06 |  5:11.14 |    149106    |   172444
        9  | 38:19.20 |  6:14.09 |    172445    |   200503
       10  | 44:33.29 |  3:55.36 |    200504    |   218164
       11  | 48:28.65 |  4:12.37 |    218165    |   237101
       12  | 52:41.27 |  3:43.29 |    237102    |   253855
       13  | 56:24.56 |  5:46.27 |    253856    |   279832
       14  | 62:11.08 |  3:59.07 |    279833    |   297764
       15  | 66:10.15 |  5:51.72 |    297765    |   324161

Range status and errors

Selected range

     Filename C:\Private\Music - to burn\To backup\Joe Satriani 2003 - The Electric Joe Satriani-An Anthology\Disk 2\Cd2Image.wav

     Peak level 98.9 %
     Extraction speed 4.1 X
     Range quality 100.0 %
     Test CRC C0D07C39
     Copy CRC C0D07C39
     Copy OK

No errors occurred

AccurateRip summary

Track  1  accurately ripped (confidence 3)  [4412E475]  (AR v2)
Track  2  accurately ripped (confidence 3)  [CB967674]  (AR v2)
Track  3  accurately ripped (confidence 3)  [370BC965]  (AR v2)
Track  4  accurately ripped (confidence 3)  [ABE9C148]  (AR v2)
Track  5  accurately ripped (confidence 3)  [EB7843CA]  (AR v2)
Track  6  accurately ripped (confidence 3)  [CAFBCB24]  (AR v2)
Track  7  accurately ripped (confidence 3)  [88CA6A69]  (AR v2)
Track  8  accurately ripped (confidence 3)  [DCB1FCC0]  (AR v2)
Track  9  accurately ripped (confidence 3)  [B3009A03]  (AR v2)
Track 10  accurately ripped (confidence 3)  [8350894D]  (AR v2)
Track 11  accurately ripped (confidence 3)  [9B7BF316]  (AR v2)
Track 12  accurately ripped (confidence 3)  [78E8FA49]  (AR v2)
Track 13  accurately ripped (confidence 3)  [C4E566B7]  (AR v2)
Track 14  accurately ripped (confidence 3)  [DE089B33]  (AR v2)
Track 15  accurately ripped (confidence 3)  [837E7AF4]  (AR v2)

All tracks accurately ripped

End of status report
 
Код:
Код:
-----------------------

DON'T MODIFY THIS FILE

-----------------------

PERFORMER: auCDtect Task Manager, ver. 1.5.1RC6 build 1.5.1.7
Copyright (c) 2008-2010 y-soft. All rights reserved
http:/y-soft.org

ANALYZER: auCDtect: CD records authenticity detector, version 0.8.2
Copyright (c) 2004 Oleg Berngardt. All rights reserved.
Copyright (c) 2004 Alexander Djourik. All rights reserved.

FILE: Cd2Image.flac
  Size: 514755841 Hash: 7FEAC55C0C5AF00A9FF6378524C4FD5E Accuracy: -m8
  Conclusion: CDDA 100%
  Signature: 71611DF13B7169C0EFFCFBC30E0FA11DAE10B8E9
 
Правила, инструкции, FAQ!!!
Торрент  Добавлен [16 мар 2014, 00:10] Скачать торрент Магнет ссылка
Скачать торрент
[ Размер 11.92 КБ / Просмотров 58 ]

Статус  
 
Размер  1 ГБ
Приватный: Нет (DHT включён)
.torrent скачан  4
 


     Отправить личное сообщение
   
Страница 1 из 1
Показать сообщения за:  Поле сортировки  
Начать новую тему Ответить на тему


Сейчас этот форум просматривают: нет зарегистрированных пользователей и гости: 0


Вы не можете начинать темы
Вы не можете отвечать на сообщения
Вы не можете редактировать свои сообщения
Вы не можете удалять свои сообщения
Вы не можете добавлять вложения

Перейти:  
cron