Начать новую тему Ответить на тему
Статистика раздачи
Размер: 545.32 МБ | Добавлен: 16 мар 2014, 00:01 | Скачали: 4
Сидеров: 1  [0 байт/сек]    Личеров: 0  [0 байт/сек]
Пред. тема | След. тема 

Автор
Сообщение

СообщениеДобавлено: 16 мар 2014, 00:01 

Ответить с цитатой 

Joe Cocker - Hit Collection (2000)

Год: 2000
Жанр: Blues Rock
Лейбл: E.S. RECORDS Ltd (This compilation – DJ’S Club Rec. GmbH)
Продолжительность: 01:18:43
Кодек: FLAC
Тип рипа: image + .cue
Битрейт: Lossless
Источник: собственный диск
Треклист:
01. My Father's Son (4:29)
02. Night Calls (3:29)
03. That's All I Need To Know (4:08)
04. When The Night Comes (4:00)
05. The Simple Things (4:45)
06. You Are So Beatiful (2:41)
07. Different Road (4:53)
08. Could You Beloved (4:13)
09. With a Little Help From My Friends (5:03)
10. Don't You Love Anymore (5:11)
11. Unchain My Heart (5:05)
12. Summer In The City (3:51)
13. N'oubliez Jamais (4:41)
14. Tonight (4:49)
15. Have a Little Faith In Me (4:18)
16. What Becomes Of The Broken Hearted (4:12)
17. Let The Healing Begin (4:13)
18. Darling Be Home Soon (4:42)
Код:
Код:
Exact Audio Copy V1.0 beta 3 from 29. August 2011

EAC extraction logfile from 17. November 2013, 15:39

Joe Cocker / Hit Collection

Used drive  : PIONEER DVD-RW  DVR-216D   Adapter: 0  ID: 1

Read mode               : Secure
Utilize accurate stream : Yes
Defeat audio cache      : Yes
Make use of C2 pointers : No

Read offset correction                      : 96
Overread into Lead-In and Lead-Out          : No
Fill up missing offset samples with silence : Yes
Delete leading and trailing silent blocks   : No
Null samples used in CRC calculations       : Yes
Used interface                              : Native Win32 interface for Win NT & 2000

Used output format              : User Defined Encoder
Selected bitrate                : 768 kBit/s
Quality                         : High
Add ID3 tag                     : No
Command line compressor         : C:\Program Files (x86)\Exact Audio Copy\FLAC\FLAC.EXE
Additional command line options : -8 -V -T "TITLE=%title%" -T "ARTIST=%artist%" -T "ALBUMARTIST=%albumartist%" -T "ALBUM=%albumtitle%" -T "DATE=%year%" -T "TRACKNUMBER=%tracknr%" -T "TRACKTOTAL=%numtracks%" -T "GENRE=%genre%" -T "COMMENT=%comment%" -T "PERFORMER=%albuminterpret%" -T "COMPOSER=%composer%" %source% -o %dest%

TOC of the extracted CD

     Track |   Start  |  Length  | Start sector | End sector
    ---------------------------------------------------------
        1  |  0:00.00 |  4:29.35 |         0    |    20209
        2  |  4:29.35 |  3:28.44 |     20210    |    35853
        3  |  7:58.04 |  4:07.66 |     35854    |    54444
        4  | 12:05.70 |  4:00.30 |     54445    |    72474
        5  | 16:06.25 |  4:45.08 |     72475    |    93857
        6  | 20:51.33 |  2:40.73 |     93858    |   105930
        7  | 23:32.31 |  4:53.08 |    105931    |   127913
        8  | 28:25.39 |  4:13.04 |    127914    |   146892
        9  | 32:38.43 |  5:03.04 |    146893    |   169621
       10  | 37:41.47 |  5:11.06 |    169622    |   192952
       11  | 42:52.53 |  5:05.33 |    192953    |   215860
       12  | 47:58.11 |  3:50.48 |    215861    |   233158
       13  | 51:48.59 |  4:40.58 |    233159    |   254216
       14  | 56:29.42 |  4:48.40 |    254217    |   275856
       15  | 61:18.07 |  4:17.74 |    275857    |   295205
       16  | 65:36.06 |  4:12.16 |    295206    |   314121
       17  | 69:48.22 |  4:12.72 |    314122    |   333093
       18  | 74:01.19 |  4:41.40 |    333094    |   354208

Range status and errors

Selected range

     Filename H:\Pashketan\Joe Cocker - Hit Collection.wav

     Peak level 100.0 %
     Extraction speed 4.7 X
     Range quality 99.9 %
     Test CRC 0AE86B5C
     Copy CRC 0AE86B5C
     Copy OK

No errors occurred

AccurateRip summary

Track  1  accurately ripped (confidence 2)  [8F400355]  (AR v1)
Track  2  accurately ripped (confidence 2)  [71A9B5BD]  (AR v1)
Track  3  accurately ripped (confidence 2)  [72A5605D]  (AR v1)
Track  4  accurately ripped (confidence 2)  [B4367D78]  (AR v1)
Track  5  accurately ripped (confidence 2)  [50769FF9]  (AR v1)
Track  6  accurately ripped (confidence 2)  [264DAD1A]  (AR v1)
Track  7  accurately ripped (confidence 2)  [442264EE]  (AR v1)
Track  8  accurately ripped (confidence 2)  [2501B014]  (AR v1)
Track  9  accurately ripped (confidence 2)  [277F7A09]  (AR v1)
Track 10  accurately ripped (confidence 2)  [A8D9F516]  (AR v1)
Track 11  accurately ripped (confidence 2)  [EE609C07]  (AR v1)
Track 12  accurately ripped (confidence 2)  [EE92A108]  (AR v1)
Track 13  accurately ripped (confidence 2)  [3BD6508B]  (AR v1)
Track 14  accurately ripped (confidence 2)  [587186F9]  (AR v1)
Track 15  accurately ripped (confidence 2)  [C960E42C]  (AR v1)
Track 16  accurately ripped (confidence 2)  [BBC1338E]  (AR v1)
Track 17  accurately ripped (confidence 1)  [A5D067CB]  (AR v2)
Track 18  accurately ripped (confidence 1)  [1F5B9F2B]  (AR v2)

All tracks accurately ripped

End of status report

---- CUETools DB Plugin V2.1.3

[CTDB TOCID: idEUTRCWTW3jNG.Ro5uvrnIwD3M-] disk not present in database, Submit result: idEUTRCWTW3jNG.Ro5uvrnIwD3M- has been uploaded

==== Log checksum BC8C8A29D036B70EFC31B3C5AD80B71C5F5A6996239FCEC557F73F5A70950969 ====

Код:
Код:
-----------------------

DON'T MODIFY THIS FILE

-----------------------

PERFORMER: auCDtect Task Manager, ver. 1.6.0 RC1 build 1.6.0.1
Copyright (c) 2008-2010 y-soft. All rights reserved
http:/y-soft.org

ANALYZER: auCDtect: CD records authenticity detector, version 0.8.2
Copyright (c) 2004 Oleg Berngardt. All rights reserved.
Copyright (c) 2004 Alexander Djourik. All rights reserved.

FILE: Joe Cocker - Hit Collection.flac
  Size: 566890257 Hash: 440B8C0A50F90E062B4E8987484D1E86 Accuracy: -m0
  Conclusion: CDDA 100%
  Signature: BF9622830347E15918DFEF1AC4B8B77227CC2ED7

Код:
Код:
REM GENRE Rock
REM DATE 2000
REM DISCID FE127212
REM COMMENT "ExactAudioCopy v1.0b3"
PERFORMER "Joe Cocker"
TITLE "Hit Collection"
FILE "Joe Cocker - Hit Collection.flac" WAVE
  TRACK 01 AUDIO
    TITLE "My Father's Son"
    PERFORMER "Joe Cocker"
    INDEX 01 00:00:00
  TRACK 02 AUDIO
    TITLE "Night Calls"
    PERFORMER "Joe Cocker"
    INDEX 00 04:27:35
    INDEX 01 04:29:35
  TRACK 03 AUDIO
    TITLE "That's All I Need To Know"
    PERFORMER "Joe Cocker"
    INDEX 00 07:56:04
    INDEX 01 07:58:04
  TRACK 04 AUDIO
    TITLE "When The Night Comes"
    PERFORMER "Joe Cocker"
    INDEX 00 12:03:70
    INDEX 01 12:05:70
  TRACK 05 AUDIO
    TITLE "The Simple Things"
    PERFORMER "Joe Cocker"
    INDEX 00 16:04:25
    INDEX 01 16:06:25
  TRACK 06 AUDIO
    TITLE "You Are So Beatiful"
    PERFORMER "Joe Cocker"
    INDEX 00 20:49:33
    INDEX 01 20:51:33
  TRACK 07 AUDIO
    TITLE "Different Road"
    PERFORMER "Joe Cocker"
    INDEX 00 23:30:31
    INDEX 01 23:32:31
  TRACK 08 AUDIO
    TITLE "Could You Beloved"
    PERFORMER "Joe Cocker"
    INDEX 00 28:23:39
    INDEX 01 28:25:39
  TRACK 09 AUDIO
    TITLE "With a Little Help From My Friends"
    PERFORMER "Joe Cocker"
    INDEX 00 32:36:43
    INDEX 01 32:38:43
  TRACK 10 AUDIO
    TITLE "Don't You Love Anymore"
    PERFORMER "Joe Cocker"
    INDEX 00 37:39:47
    INDEX 01 37:41:47
  TRACK 11 AUDIO
    TITLE "Unchain My Heart"
    PERFORMER "Joe Cocker"
    INDEX 00 42:50:53
    INDEX 01 42:52:53
  TRACK 12 AUDIO
    TITLE "Summer In The City"
    PERFORMER "Joe Cocker"
    INDEX 00 47:56:11
    INDEX 01 47:58:11
  TRACK 13 AUDIO
    TITLE "N'oubliez Jamais"
    PERFORMER "Joe Cocker"
    INDEX 00 51:46:59
    INDEX 01 51:48:59
  TRACK 14 AUDIO
    TITLE "Tonight"
    PERFORMER "Joe Cocker"
    INDEX 00 56:27:42
    INDEX 01 56:29:42
  TRACK 15 AUDIO
    TITLE "Have a Little Faith In Me"
    PERFORMER "Joe Cocker"
    INDEX 00 61:16:07
    INDEX 01 61:18:07
  TRACK 16 AUDIO
    TITLE "What Becomes Of The Broken Hearted"
    PERFORMER "Joe Cocker"
    INDEX 00 65:34:06
    INDEX 01 65:36:06
  TRACK 17 AUDIO
    TITLE "Let The Healing Begin"
    PERFORMER "Joe Cocker"
    INDEX 00 69:46:22
    INDEX 01 69:48:22
  TRACK 18 AUDIO
    TITLE "Darling Be Home Soon"
    PERFORMER "Joe Cocker"
    INDEX 00 73:59:19
    INDEX 01 74:01:19

Код:
Код:
[CUETools log; Date: 17.11.2013 16:38:28; Version: 2.1.4]
[CTDB TOCID: idEUTRCWTW3jNG.Ro5uvrnIwD3M-] found.
Track | CTDB Status
  1   | (1/1) Accurately ripped
  2   | (1/1) Accurately ripped
  3   | (1/1) Accurately ripped
  4   | (1/1) Accurately ripped
  5   | (1/1) Accurately ripped
  6   | (1/1) Accurately ripped
  7   | (1/1) Accurately ripped
  8   | (1/1) Accurately ripped
  9   | (1/1) Accurately ripped
 10   | (1/1) Accurately ripped
 11   | (1/1) Accurately ripped
 12   | (1/1) Accurately ripped
 13   | (1/1) Accurately ripped
 14   | (1/1) Accurately ripped
 15   | (1/1) Accurately ripped
 16   | (1/1) Accurately ripped
 17   | (1/1) Accurately ripped
 18   | (1/1) Accurately ripped
[AccurateRip ID: 00324a88-02a40734-fe127212] found.
Track   [  CRC   |   V2   ] Status
 01     [8f400355|da2659fe] (2+0/2) Accurately ripped
 02     [71a9b5bd|e87fa250] (2+0/2) Accurately ripped
 03     [72a5605d|ba774795] (2+0/2) Accurately ripped
 04     [b4367d78|d51c8b87] (2+0/2) Accurately ripped
 05     [50769ff9|67a78a62] (2+0/2) Accurately ripped
 06     [264dad1a|a9d29edb] (2+0/2) Accurately ripped
 07     [442264ee|fd9a514a] (2+0/2) Accurately ripped
 08     [2501b014|2925e5a9] (2+0/2) Accurately ripped
 09     [277f7a09|c9159653] (2+0/2) Accurately ripped
 10     [a8d9f516|8a278708] (2+0/2) Accurately ripped
 11     [ee609c07|8be30455] (2+0/2) Accurately ripped
 12     [ee92a108|3b9b5dbf] (2+0/2) Accurately ripped
 13     [3bd6508b|7bf979a4] (2+0/2) Accurately ripped
 14     [587186f9|14075c3c] (2+0/2) Accurately ripped
 15     [c960e42c|73fd66cd] (2+0/2) Accurately ripped
 16     [bbc1338e|050b66fe] (2+0/2) Accurately ripped
 17     [cc5a1d03|a5d067cb] (1+1/2) Accurately ripped
 18     [d49ecd70|1f5b9f2b] (1+1/2) Accurately ripped

Track Peak [ CRC32  ] [W/O NULL] [  LOG   ]
 --  100,0 [0AE86B5C] [F3D9BD07]   CRC32
 01   95,1 [0A352858] [D8C77851]
 02  100,0 [2C7B6556] [D570AE50]
 03   99,6 [E8AF19F8] [D2BAD7FD]
 04  100,0 [27D79495] [025FD333]
 05   98,8 [8D688171] [985AB3AE]
 06   99,6 [84A07EB9] [E006D6B3]
 07   97,8 [D854993C] [19E95054]
 08   98,8 [C2BC1BAF] [AE9106EB]
 09   98,2 [C3A39FCB] [18254720]
 10   98,8 [B4FAB2A0] [90534B01]
 11   98,8 [C5D4A1E4] [5A3B2888]
 12   98,8 [2093A4FB] [0F754DF9]
 13   98,8 [4D7C5330] [9EE6A80B]
 14   98,8 [BB3E2988] [36740860]
 15   98,8 [1EAAC4D6] [948E014B]
 16   98,8 [78CEF0F7] [0A0C5B18]
 17   98,8 [FB33FE1A] [04D0C73B]
 18   99,5 [01B05E8B] [7BE52328]

Правила, инструкции, FAQ!!!
Торрент  Добавлен [16 мар 2014, 00:01] Скачать торрент Магнет ссылка
Скачать торрент
[ Размер 11.98 КБ / Просмотров 75 ]

Статус  
 
Размер  545.32 МБ
Приватный: Нет (DHT включён)
.torrent скачан  4
 


     Отправить личное сообщение
   
Страница 1 из 1
Показать сообщения за:  Поле сортировки  
Начать новую тему Ответить на тему


Сейчас этот форум просматривают: нет зарегистрированных пользователей и гости: 0


Вы не можете начинать темы
Вы не можете отвечать на сообщения
Вы не можете редактировать свои сообщения
Вы не можете удалять свои сообщения
Вы не можете добавлять вложения

Перейти:  
cron