Начать новую тему Ответить на тему
Статистика раздачи
Размер: 462.12 МБ | Добавлен: 16 мар 2014, 00:55 | Скачали: 0
Сидеров: 1  [0 байт/сек]    Личеров: 0  [0 байт/сек]
Пред. тема | След. тема 

Автор
Сообщение

СообщениеДобавлено: 16 мар 2014, 00:55 

Ответить с цитатой 

Joan As Police Woman - The Deep Field (2011)

Год: 2011
Жанр: Rock, Indie, Alternative Rock, Art Rock
Страна: USA
Страна-производитель диска: UK
Издатель (лейбл): Play It Again Sam | #: PIASR231CDX
Наличие сканов в содержимом раздачи: да
Источник (релизер): erro
Продолжительность: 00:55:42

Кодек: FLAC
Битрейт: Lossless

Треклист:
01. Nervous (6:02)
02. The Magic (4:10)
03. The Action Man (5:08)
04. Flash (7:52)
05. Run For Love (5:37)
06. Human Condition (5:33)
07. Kiss The Specifics (4:30)
08. Chemmie (4:47)
09. Forever And A Year (5:56)
10. I Was Everyone (6:06)
Код:
Код:
Exact Audio Copy V0.99 prebeta 5 from 4. May 2009

EAC extraction logfile from 12. February 2011, 10:46

Joan As Police Woman / The Deep Field

Used drive  : HL-DT-STDVDRAM GSA-T50F   Adapter: 3  ID: 0

Read mode               : Secure
Utilize accurate stream : Yes
Defeat audio cache      : Yes
Make use of C2 pointers : No

Read offset correction                      : 667
Overread into Lead-In and Lead-Out          : No
Fill up missing offset samples with silence : Yes
Delete leading and trailing silent blocks   : No
Null samples used in CRC calculations       : Yes
Used interface                              : Installed external ASPI interface

Used output format : Internal WAV Routines
Sample format      : 44.100 Hz; 16 Bit; Stereo

TOC of the extracted CD

     Track |   Start  |  Length  | Start sector | End sector
    ---------------------------------------------------------
        1  |  0:00.00 |  6:02.24 |         0    |    27173
        2  |  6:02.24 |  4:09.40 |     27174    |    45888
        3  | 10:11.64 |  5:08.10 |     45889    |    68998
        4  | 15:19.74 |  7:51.49 |     68999    |   104372
        5  | 23:11.48 |  5:37.32 |    104373    |   129679
        6  | 28:49.05 |  5:33.31 |    129680    |   154685
        7  | 34:22.36 |  4:30.02 |    154686    |   174937
        8  | 38:52.38 |  4:47.21 |    174938    |   196483
        9  | 43:39.59 |  5:56.31 |    196484    |   223214
       10  | 49:36.15 |  6:05.61 |    223215    |   250650

Range status and errors

Selected range

     Filename C:\Joan As Police Woman - The Deep Field (2011)\Joan As Police Woman - The Deep Field.wav

     Peak level 100.0 %
     Range quality 100.0 %
     Copy CRC 98065012
     Copy OK

No errors occurred

AccurateRip summary

Track  1  not present in database
Track  2  not present in database
Track  3  not present in database
Track  4  not present in database
Track  5  not present in database
Track  6  not present in database
Track  7  not present in database
Track  8  not present in database
Track  9  not present in database
Track 10  not present in database

None of the tracks are present in the AccurateRip database

End of status report
Код:
Код:
-----------------------

DON'T MODIFY THIS FILE

-----------------------

PERFORMER: auCDtect Task Manager, ver. 1.6.0 RC1 build 1.6.0.1
Copyright (c) 2008-2010 y-soft. All rights reserved
http:/y-soft.org

ANALYZER: auCDtect: CD records authenticity detector, version 0.8.2
Copyright (c) 2004 Oleg Berngardt. All rights reserved.
Copyright (c) 2004 Alexander Djourik. All rights reserved.

FILE: Joan As Police Woman - The Deep Field.flac
  Size: 383065125 Hash: A2F1BE1EBC8A52FE6D971D52239456A8 Accuracy: -m0
  Conclusion: CDDA 100%
  Signature: BD820D327FBCA25B507BD8134C4C597B368744D8

Правила, инструкции, FAQ!!!
Торрент  Добавлен [16 мар 2014, 00:55] Скачать торрент Магнет ссылка
Скачать торрент
[ Размер 19.5 КБ / Просмотров 20 ]

Статус  
 
Размер  462.12 МБ
Приватный: Нет (DHT включён)
.torrent скачан  0
 


     Отправить личное сообщение
   
Страница 1 из 1
Показать сообщения за:  Поле сортировки  
Начать новую тему Ответить на тему


Сейчас этот форум просматривают: нет зарегистрированных пользователей и гости: 0


Вы не можете начинать темы
Вы не можете отвечать на сообщения
Вы не можете редактировать свои сообщения
Вы не можете удалять свои сообщения
Вы не можете добавлять вложения

Перейти:  
cron
cron