Начать новую тему Ответить на тему
Статистика раздачи
Размер: 321.45 МБ | Добавлен: 16 мар 2014, 00:14 | Скачали: 0
Сидеров: 1  [0 байт/сек]    Личеров: 1  [0 байт/сек]
Пред. тема | След. тема 

Автор
Сообщение

СообщениеДобавлено: 16 мар 2014, 00:14 

Ответить с цитатой 

Jimmy Martin - Wild At Heart (2013)

Год: 2013
Страна-производитель диска: Luxembourg
Издатель (лейбл): Fastball Music
Номер по каталогу #: FB12C939
Жанр: Melodic Rock / AOR
Продолжительность: 00:40:49

Кодек: FLAC (*.flac)
Битрейт: Lossless
Тип рипа: image+.cue
Спасибо: labanov

Треклист:
01. Live Your Dream
02. Break Free
03. Love Don't Live Here Anymore
04. I Wish You Here Tonight (Duet With Robin Beck)
05. Born to Run
06. Love Somebody (feat. Rick Springfield)
07. Different
08. Love Is the Answer
09. When Your Smile Fades Away
10. Life Without Love
11. My Sharona
Код:
Код:
Exact Audio Copy V1.0 beta 3 from 29. August 2011

EAC extraction logfile from 19. December 2013, 20:21

Jimmy Martin / Wild At Heart

Used drive  : Optiarc DVD RW AD-7201S   Adapter: 2  ID: 0

Read mode               : Secure
Utilize accurate stream : Yes
Defeat audio cache      : Yes
Make use of C2 pointers : No

Read offset correction                      : 48
Overread into Lead-In and Lead-Out          : No
Fill up missing offset samples with silence : Yes
Delete leading and trailing silent blocks   : No
Null samples used in CRC calculations       : Yes
Used interface                              : Native Win32 interface for Win NT & 2000

Used output format : Internal WAV Routines
Sample format      : 44.100 Hz; 16 Bit; Stereo

TOC of the extracted CD

     Track |   Start  |  Length  | Start sector | End sector
    ---------------------------------------------------------
        1  |  0:00.00 |  3:48.66 |         0    |    17165
        2  |  3:48.66 |  3:05.17 |     17166    |    31057
        3  |  6:54.08 |  3:33.11 |     31058    |    47043
        4  | 10:27.19 |  4:17.55 |     47044    |    66373
        5  | 14:44.74 |  3:20.43 |     66374    |    81416
        6  | 18:05.42 |  3:13.51 |     81417    |    95942
        7  | 21:19.18 |  3:50.69 |     95943    |   113261
        8  | 25:10.12 |  4:33.57 |    113262    |   133793
        9  | 29:43.69 |  4:09.65 |    133794    |   152533
       10  | 33:53.59 |  3:44.17 |    152534    |   169350
       11  | 37:38.01 |  3:10.38 |    169351    |   183638
       12  | 43:20.39 | 14:49.10 |    195039    |   261723

Range status and errors

Selected range

     Filename D:\Cвои рипы на Darksage\Jimmy Martin - Wild At Heart.wav

     Peak level 100.0 %
     Extraction speed 3.8 X
     Range quality 99.9 %
     Copy CRC 02F05062
     Copy OK

No errors occurred

AccurateRip summary

Track  1  not present in database
Track  2  not present in database
Track  3  not present in database
Track  4  not present in database
Track  5  not present in database
Track  6  not present in database
Track  7  not present in database
Track  8  not present in database
Track  9  not present in database
Track 10  not present in database
Track 11  not present in database

None of the tracks are present in the AccurateRip database

End of status report

==== Log checksum AAC84C35B1E6BBC883080F289B938C89B4B22CBAADB1AFAE94C9F712B4DB9120 ====
Код:
Код:
-----------------------

DON'T MODIFY THIS FILE

-----------------------

PERFORMER: auCDtect Task Manager, ver. 1.6.0 RC1 build 1.6.0.1
Copyright (c) 2008-2010 y-soft. All rights reserved
http:/y-soft.org

ANALYZER: auCDtect: CD records authenticity detector, version 0.8.2
Copyright (c) 2004 Oleg Berngardt. All rights reserved.
Copyright (c) 2004 Alexander Djourik. All rights reserved.

FILE: Jimmy Martin - Wild At Heart.flac
  Size: 319950163 Hash: 4DD35AF8F3FAE773924CA5E0AB18A5B4 Accuracy: -m0
  Conclusion: CDDA 100%
  Signature: B8C8C8D76F0A5D5AC3DFF551BF5738EE119F6773
Код:
Код:
REM GENRE "Hard Rock"
REM DATE 2013
REM DISCID 910DA10C
REM COMMENT "ExactAudioCopy v1.0b3"
PERFORMER "Jimmy Martin"
TITLE "Wild At Heart"
FILE "Jimmy Martin - Wild At Heart.flac" WAVE
  TRACK 01 AUDIO
    TITLE "Live Your Dream"
    PERFORMER "Jimmy Martin"
    INDEX 01 00:00:00
  TRACK 02 AUDIO
    TITLE "Break Free"
    PERFORMER "Jimmy Martin"
    INDEX 00 03:46:66
    INDEX 01 03:48:66
  TRACK 03 AUDIO
    TITLE "Love Don't Live Here Anymore"
    PERFORMER "Jimmy Martin"
    INDEX 00 06:52:08
    INDEX 01 06:54:08
  TRACK 04 AUDIO
    TITLE "I Wish You Here Tonight (feat. Robin Beck)"
    PERFORMER "Jimmy Martin"
    INDEX 00 10:25:19
    INDEX 01 10:27:19
  TRACK 05 AUDIO
    TITLE "Born To Run"
    PERFORMER "Jimmy Martin"
    INDEX 00 14:42:74
    INDEX 01 14:44:74
  TRACK 06 AUDIO
    TITLE "Love Somebody (feat. Rick Springfield)"
    PERFORMER "Jimmy Martin"
    INDEX 00 18:03:42
    INDEX 01 18:05:42
  TRACK 07 AUDIO
    TITLE "Different"
    PERFORMER "Jimmy Martin"
    INDEX 00 21:17:18
    INDEX 01 21:19:18
  TRACK 08 AUDIO
    TITLE "Love Is The Answer"
    PERFORMER "Jimmy Martin"
    INDEX 00 25:08:12
    INDEX 01 25:10:12
  TRACK 09 AUDIO
    TITLE "When Your Smile Fades Away"
    PERFORMER "Jimmy Martin"
    INDEX 00 29:41:69
    INDEX 01 29:43:69
  TRACK 10 AUDIO
    TITLE "Life Without Love"
    PERFORMER "Jimmy Martin"
    INDEX 00 33:51:59
    INDEX 01 33:53:59
  TRACK 11 AUDIO
    TITLE "My Sharona"
    PERFORMER "Jimmy Martin"
    INDEX 00 37:36:01
    INDEX 01 37:38:01

Правила, инструкции, FAQ!!!
Торрент  Добавлен [16 мар 2014, 00:14] Скачать торрент Магнет ссылка
Скачать торрент
[ Размер 13.8 КБ / Просмотров 21 ]

Статус  
 
Размер  321.45 МБ
Приватный: Нет (DHT включён)
.torrent скачан  0
 


     Отправить личное сообщение
   
Страница 1 из 1
Показать сообщения за:  Поле сортировки  
Начать новую тему Ответить на тему


Сейчас этот форум просматривают: нет зарегистрированных пользователей и гости: 0


Вы не можете начинать темы
Вы не можете отвечать на сообщения
Вы не можете редактировать свои сообщения
Вы не можете удалять свои сообщения
Вы не можете добавлять вложения

Перейти:  
cron