Начать новую тему Ответить на тему
Статистика раздачи
Размер: 257 МБ | Добавлен: 16 мар 2014, 00:02 | Скачали: 0
Сидеров: 0  [0 байт/сек]    Личеров: 0  [0 байт/сек]
Пред. тема | След. тема 

Автор
Сообщение

СообщениеДобавлено: 16 мар 2014, 00:02 

Ответить с цитатой 

Jimmy Jax Pinchak Band - Make It Better (2014)

Год: 2014
Жанр: Blues Rock
Лейбл: Jimmy Jax Pinchak Inc
Каталог #: B00HWJSWXE
Продолжительность: 00:36:37
Кодек: FLAC
Тип рипа: tracks + .cue
Битрейт: Lossless
Треклист:
01. There Is More (4:32)
02. On the Run (4:59)
03. Tell Me (3:56)
04. Make It Better (4:36)
05. Into the Fire (3:35)
06. Free Your Mind (4:02)
07. Draggin' the Line (3:31)
08. Soul Sacrifice (7:25)
Код:
Код:
X Lossless Decoder version 20131102 (145.0)

XLD extraction logfile from 2014-01-20 18:05:29 -0600

Jimmy Jax Pinchak Band / Make It Better

Used drive : TSSTcorp CDDVDW SE-218CB (revision TS00)
Media type : Pressed CD

Ripper mode             : XLD Secure Ripper
Disable audio cache     : OK for the drive with a cache less than 1375KiB
Make use of C2 pointers : NO
Read offset correction  : 6
Max retry count         : 20
Gap status              : Analyzed, Appended (except HTOA)

TOC of the extracted CD
     Track |   Start  |  Length  | Start sector | End sector
    ---------------------------------------------------------
        1  | 00:00:00 | 04:32:23 |         0    |    20422
        2  | 04:32:23 | 04:58:69 |     20423    |    42841
        3  | 09:31:17 | 03:55:50 |     42842    |    60516
        4  | 13:26:67 | 04:36:20 |     60517    |    81236
        5  | 18:03:12 | 03:35:21 |     81237    |    97382
        6  | 21:38:33 | 04:01:66 |     97383    |   115523
        7  | 25:40:24 | 03:31:32 |    115524    |   131380
        8  | 29:11:56 | 07:24:64 |    131381    |   164744

AccurateRip Summary
    Disc not found in AccurateRip DB.

All Tracks
    Album gain               : -9.07 dB
    Peak                     : 0.988647
    Statistics
        Read error                           : 0
        Jitter error (maybe fixed)           : 0
        Retry sector count                   : 0
        Damaged sector count                 : 0

Track 01
    Filename : /Users/eddyj/Desktop/Jimmy Jax Pinchak Band-Make It Better (2014) [FLAC]/01 - There Is More.flac
    Pre-gap length : 00:02:00

    Track gain               : -8.13 dB
    Peak                     : 0.988647
    CRC32 hash (test run)    : C45DA7B7
    CRC32 hash               : C45DA7B7
    CRC32 hash (skip zero)   : 05599A54
    AccurateRip v1 signature : 1D399F6A
    AccurateRip v2 signature : 0AB783AE
        ->Track not present in AccurateRip database.
    Statistics
        Read error                           : 0
        Jitter error (maybe fixed)           : 0
        Retry sector count                   : 0
        Damaged sector count                 : 0

Track 02
    Filename : /Users/eddyj/Desktop/Jimmy Jax Pinchak Band-Make It Better (2014) [FLAC]/02 - On the Run.flac

    Track gain               : -8.49 dB
    Peak                     : 0.988647
    CRC32 hash (test run)    : C3068F0F
    CRC32 hash               : C3068F0F
    CRC32 hash (skip zero)   : 5B978227
    AccurateRip v1 signature : 199386AE
    AccurateRip v2 signature : 81EECE91
        ->Track not present in AccurateRip database.
    Statistics
        Read error                           : 0
        Jitter error (maybe fixed)           : 0
        Retry sector count                   : 0
        Damaged sector count                 : 0

Track 03
    Filename : /Users/eddyj/Desktop/Jimmy Jax Pinchak Band-Make It Better (2014) [FLAC]/03 - Tell Me.flac

    Track gain               : -8.96 dB
    Peak                     : 0.977539
    CRC32 hash (test run)    : 979C03B0
    CRC32 hash               : 979C03B0
    CRC32 hash (skip zero)   : 2FBFF554
    AccurateRip v1 signature : 6268D168
    AccurateRip v2 signature : 2935C8A9
        ->Track not present in AccurateRip database.
    Statistics
        Read error                           : 0
        Jitter error (maybe fixed)           : 0
        Retry sector count                   : 0
        Damaged sector count                 : 0

Track 04
    Filename : /Users/eddyj/Desktop/Jimmy Jax Pinchak Band-Make It Better (2014) [FLAC]/04 - Make It Better.flac

    Track gain               : -9.81 dB
    Peak                     : 0.988647
    CRC32 hash (test run)    : 16BC1631
    CRC32 hash               : 16BC1631
    CRC32 hash (skip zero)   : AF360CB1
    AccurateRip v1 signature : 8A1C1172
    AccurateRip v2 signature : C483BF03
        ->Track not present in AccurateRip database.
    Statistics
        Read error                           : 0
        Jitter error (maybe fixed)           : 0
        Retry sector count                   : 0
        Damaged sector count                 : 0

Track 05
    Filename : /Users/eddyj/Desktop/Jimmy Jax Pinchak Band-Make It Better (2014) [FLAC]/05 - Into the Fire.flac

    Track gain               : -8.82 dB
    Peak                     : 0.977539
    CRC32 hash (test run)    : 37A3288A
    CRC32 hash               : 37A3288A
    CRC32 hash (skip zero)   : FD189731
    AccurateRip v1 signature : C8E7774F
    AccurateRip v2 signature : 5C2030EA
        ->Track not present in AccurateRip database.
    Statistics
        Read error                           : 0
        Jitter error (maybe fixed)           : 0
        Retry sector count                   : 0
        Damaged sector count                 : 0

Track 06
    Filename : /Users/eddyj/Desktop/Jimmy Jax Pinchak Band-Make It Better (2014) [FLAC]/06 - Free Your Mind.flac

    Track gain               : -8.91 dB
    Peak                     : 0.977570
    CRC32 hash (test run)    : 9A16BBF6
    CRC32 hash               : 9A16BBF6
    CRC32 hash (skip zero)   : 8411F03D
    AccurateRip v1 signature : DABB5817
    AccurateRip v2 signature : 5923745B
        ->Track not present in AccurateRip database.
    Statistics
        Read error                           : 0
        Jitter error (maybe fixed)           : 0
        Retry sector count                   : 0
        Damaged sector count                 : 0

Track 07
    Filename : /Users/eddyj/Desktop/Jimmy Jax Pinchak Band-Make It Better (2014) [FLAC]/07 - Draggin' the Line.flac

    Track gain               : -8.35 dB
    Peak                     : 0.988647
    CRC32 hash (test run)    : B7A3FEB3
    CRC32 hash               : B7A3FEB3
    CRC32 hash (skip zero)   : 00932580
    AccurateRip v1 signature : 2FA3C4AF
    AccurateRip v2 signature : 9E571044
        ->Track not present in AccurateRip database.
    Statistics
        Read error                           : 0
        Jitter error (maybe fixed)           : 0
        Retry sector count                   : 0
        Damaged sector count                 : 0

Track 08
    Filename : /Users/eddyj/Desktop/Jimmy Jax Pinchak Band-Make It Better (2014) [FLAC]/08 - Soul Sacrifice.flac

    Track gain               : -9.39 dB
    Peak                     : 0.988556
    CRC32 hash (test run)    : 94B09098
    CRC32 hash               : 94B09098
    CRC32 hash (skip zero)   : 80710D89
    AccurateRip v1 signature : 029BDCA9
    AccurateRip v2 signature : ACA4422F
        ->Track not present in AccurateRip database.
    Statistics
        Read error                           : 0
        Jitter error (maybe fixed)           : 0
        Retry sector count                   : 0
        Damaged sector count                 : 0

No errors occurred

End of status report

-----BEGIN XLD SIGNATURE-----
AMe6d4WIt.hHXuwoDYcFP5QXJZvBhQepzgOFCtq1AcWRHGNkZVr8GroOPBHqv3HXIRjV8KzUlEqbo_ZP0OtdS1OeknqcXmaD0j2JrCq
-----END XLD SIGNATURE-----

Код:
Код:
-----------------------

DON'T MODIFY THIS FILE

-----------------------

PERFORMER: auCDtect Task Manager, ver. 1.6.0 RC1 build 1.6.0.1
Copyright (c) 2008-2010 y-soft. All rights reserved
http:/y-soft.org

ANALYZER: auCDtect: CD records authenticity detector, version 0.8.2
Copyright (c) 2004 Oleg Berngardt. All rights reserved.
Copyright (c) 2004 Alexander Djourik. All rights reserved.

FILE: 04 - Make It Better.flac
  Size: 34367571 Hash: FA5B359DB3C455F11FF4ADAF48A61FE0 Accuracy: -m0
  Conclusion: CDDA 100%
  Signature: 048062C9B09BF5B629DCBFBAC2BCAAA4C553AF8C
FILE: 03 - Tell Me.flac
  Size: 31498291 Hash: E2AF24D786B63AC0E11CA6AB85BED158 Accuracy: -m0
  Conclusion: CDDA 100%
  Signature: 06D75F1876B87D7D22DA2082BC93169BC68A97F6
FILE: 02 - On the Run.flac
  Size: 36672137 Hash: 32D511925BE5D007BABBDDAA73371F50 Accuracy: -m0
  Conclusion: CDDA 100%
  Signature: DD7FE4147F4BA6391933FC2F16FD7E02E71EFB93
FILE: 01 - There Is More.flac
  Size: 32788887 Hash: 9417742F5753CD977A638F7E856D093E Accuracy: -m0
  Conclusion: CDDA 100%
  Signature: ED498FCCC9FBE635A54488EEC08C3E0C22DAE378
FILE: 08 - Soul Sacrifice.flac
  Size: 51059986 Hash: 518D7077C41F93A85254B17AFDBC72E9 Accuracy: -m0
  Conclusion: CDDA 100%
  Signature: A79E2D1F455259CA7DE6125D6503B5F3ADC4AE6C
FILE: 07 - Draggin' the Line.flac
  Size: 26440224 Hash: 25014F91AFD369FB4518424155FF1766 Accuracy: -m0
  Conclusion: CDDA 100%
  Signature: E75EF57B404E6E3FA58B2F37846F67144E1A61B9
FILE: 06 - Free Your Mind.flac
  Size: 29719339 Hash: 803204421F16CBB8C3575957932C8D5F Accuracy: -m0
  Conclusion: CDDA 100%
  Signature: AF6DD92BB521F5AEBCF3940FA5866D518985939C
FILE: 05 - Into the Fire.flac
  Size: 26903500 Hash: D7EDEB0FB5CB68165E6CCB8C599ED1E2 Accuracy: -m0
  Conclusion: CDDA 100%
  Signature: 29EBC7F3162296FD42F2F928A68B3E32907C70EA

Код:
Код:
TITLE "Make It Better"
PERFORMER "Jimmy Jax Pinchak Band"
REM GENRE "Rock"
REM DATE "2014"
REM DISCNUMBER 1
REM TOTALDISCS 1
REM DISCID 5C089408
REM REPLAYGAIN_ALBUM_GAIN -9.07 dB
REM REPLAYGAIN_ALBUM_PEAK 0.988647
FILE "01 - There Is More.flac" WAVE
  TRACK 01 AUDIO
    TITLE "There Is More"
    REM REPLAYGAIN_TRACK_GAIN -8.13 dB
    REM REPLAYGAIN_TRACK_PEAK 0.988647
    INDEX 01 00:00:00
FILE "02 - On the Run.flac" WAVE
  TRACK 02 AUDIO
    TITLE "On the Run"
    REM REPLAYGAIN_TRACK_GAIN -8.49 dB
    REM REPLAYGAIN_TRACK_PEAK 0.988647
    INDEX 01 00:00:00
FILE "03 - Tell Me.flac" WAVE
  TRACK 03 AUDIO
    TITLE "Tell Me"
    REM REPLAYGAIN_TRACK_GAIN -8.96 dB
    REM REPLAYGAIN_TRACK_PEAK 0.977539
    INDEX 01 00:00:00
FILE "04 - Make It Better.flac" WAVE
  TRACK 04 AUDIO
    TITLE "Make It Better"
    REM REPLAYGAIN_TRACK_GAIN -9.81 dB
    REM REPLAYGAIN_TRACK_PEAK 0.988647
    INDEX 01 00:00:00
FILE "05 - Into the Fire.flac" WAVE
  TRACK 05 AUDIO
    TITLE "Into the Fire"
    REM REPLAYGAIN_TRACK_GAIN -8.82 dB
    REM REPLAYGAIN_TRACK_PEAK 0.977539
    INDEX 01 00:00:00
FILE "06 - Free Your Mind.flac" WAVE
  TRACK 06 AUDIO
    TITLE "Free Your Mind"
    REM REPLAYGAIN_TRACK_GAIN -8.91 dB
    REM REPLAYGAIN_TRACK_PEAK 0.977570
    INDEX 01 00:00:00
FILE "07 - Draggin' the Line.flac" WAVE
  TRACK 07 AUDIO
    TITLE "Draggin' the Line"
    REM REPLAYGAIN_TRACK_GAIN -8.35 dB
    REM REPLAYGAIN_TRACK_PEAK 0.988647
    INDEX 01 00:00:00
FILE "08 - Soul Sacrifice.flac" WAVE
  TRACK 08 AUDIO
    TITLE "Soul Sacrifice"
    REM REPLAYGAIN_TRACK_GAIN -9.39 dB
    REM REPLAYGAIN_TRACK_PEAK 0.988556
    INDEX 01 00:00:00

Правила, инструкции, FAQ!!!
Торрент  Добавлен [16 мар 2014, 00:02] Скачать торрент Магнет ссылка
Скачать торрент
[ Размер 11.35 КБ / Просмотров 10 ]

Статус  
 
Размер  257 МБ
Приватный: Нет (DHT включён)
.torrent скачан  0
 


     Отправить личное сообщение
   
Страница 1 из 1
Показать сообщения за:  Поле сортировки  
Начать новую тему Ответить на тему


Сейчас этот форум просматривают: нет зарегистрированных пользователей и гости: 0


Вы не можете начинать темы
Вы не можете отвечать на сообщения
Вы не можете редактировать свои сообщения
Вы не можете удалять свои сообщения
Вы не можете добавлять вложения

Перейти:  
cron