Начать новую тему Ответить на тему
Статистика раздачи
Размер: 459.77 МБ | Добавлен: 16 мар 2014, 00:08 | Скачали: 0
Сидеров: 1  [0 байт/сек]    Личеров: 0  [0 байт/сек]
Пред. тема | След. тема 

Автор
Сообщение

СообщениеДобавлено: 16 мар 2014, 00:08 

Ответить с цитатой 

Jim Gustin And Truth Jones - Can't Shed A Tear (2013)

Год: 2013
Жанр: Blues Rock
Лейбл: Jim Gustin and Truth Jones
Каталог #: 884501995900
Продолжительность: 01:03:31
Кодек: FLAC
Тип рипа: image + .cue
Битрейт: Lossless
Треклист:
01. I Gotta Sing (3:22)
02. Can't Shed A Tear (4:23)
03. No Faith In Forever (5:19)
04. If God Made Something Better (3:08)
05. Beauty For Ashes (6:46)
06. Why, Why, Why (4:57)
07. Good-Bye (4:24)
08. My Baby Just Left Me Again (4:01)
09. Fill Up My Soul (4:42)
10. You Never Gave Up On Me (4:07)
11. You Answer Me (5:30)
12. Life Is Hard, Live With It (3:24)
13. What Do You See In Me (5:16)
14. Say Amen (4:15)
Код:
Код:
Exact Audio Copy V1.0 beta 3 from 29. August 2011

EAC extraction logfile from 8. January 2014, 23:09

Jim Gustin And Truth Jones / Can't Shed A Tear

Used drive  : Optiarc DVD RW AD-5280S   Adapter: 2  ID: 2

Read mode               : Secure
Utilize accurate stream : Yes
Defeat audio cache      : Yes
Make use of C2 pointers : No

Read offset correction                      : 48
Overread into Lead-In and Lead-Out          : No
Fill up missing offset samples with silence : Yes
Delete leading and trailing silent blocks   : No
Null samples used in CRC calculations       : Yes
Used interface                              : Installed external ASPI interface

Used output format              : User Defined Encoder
Selected bitrate                : 768 kBit/s
Quality                         : High
Add ID3 tag                     : No
Command line compressor         : F:\Program Files\Exact Audio Copy\Flac\flac.exe
Additional command line options :  -V -8 -T "Date=%year%" -T "Genre=%genre%" %source%

TOC of the extracted CD

     Track |   Start  |  Length  | Start sector | End sector
    ---------------------------------------------------------
        1  |  0:00.00 |  3:21.56 |         0    |    15130
        2  |  3:21.56 |  4:23.21 |     15131    |    34876
        3  |  7:45.02 |  5:18.56 |     34877    |    58782
        4  | 13:03.58 |  3:07.44 |     58783    |    72851
        5  | 16:11.27 |  6:45.39 |     72852    |   103265
        6  | 22:56.66 |  4:57.12 |    103266    |   125552
        7  | 27:54.03 |  4:24.06 |    125553    |   145358
        8  | 32:18.09 |  4:00.38 |    145359    |   163396
        9  | 36:18.47 |  4:41.69 |    163397    |   184540
       10  | 41:00.41 |  4:06.43 |    184541    |   203033
       11  | 45:07.09 |  5:29.70 |    203034    |   227778
       12  | 50:37.04 |  3:23.39 |    227779    |   243042
       13  | 54:00.43 |  5:15.56 |    243043    |   266723
       14  | 59:16.24 |  4:14.52 |    266724    |   285825

Range status and errors

Selected range

     Filename D:\Sket4er\Jim Gustin And Truth Jones - Can't Shed A Tear 2013 [flac]\Jim Gustin And Truth Jones - Can't Shed A Tear.wav

     Peak level 98.8 %
     Extraction speed 4.3 X
     Range quality 99.9 %
     Test CRC 8B45FFFA
     Copy CRC 8B45FFFA
     Copy OK

No errors occurred

AccurateRip summary

Track  1  not present in database
Track  2  not present in database
Track  3  not present in database
Track  4  not present in database
Track  5  not present in database
Track  6  not present in database
Track  7  not present in database
Track  8  not present in database
Track  9  not present in database
Track 10  not present in database
Track 11  not present in database
Track 12  not present in database
Track 13  not present in database
Track 14  not present in database

None of the tracks are present in the AccurateRip database

End of status report

==== Log checksum 4A617E0C63EF232806B64C419686ACBAAC9FE93226B27F15CE5BE37986665266 ====

Код:
Код:
-----------------------

DON'T MODIFY THIS FILE

-----------------------

PERFORMER: auCDtect Task Manager, ver. 1.6.0 RC1 build 1.6.0.1
Copyright (c) 2008-2010 y-soft. All rights reserved
http:/y-soft.org

ANALYZER: auCDtect: CD records authenticity detector, version 0.8.2
Copyright (c) 2004 Oleg Berngardt. All rights reserved.
Copyright (c) 2004 Alexander Djourik. All rights reserved.

FILE: Jim Gustin And Truth Jones - Can't Shed A Tear.flac
  Size: 462617098 Hash: 36D8C18464532FA9A3323E7231FE5A49 Accuracy: -m0
  Conclusion: CDDA 100%
  Signature: 73690905DCFABED1DFA06DBFC14E17C34D4FA0C3

Код:
Код:
REM GENRE "Blues Rock"
REM DATE 2013
REM DISCID CE0EE30E
REM COMMENT "ExactAudioCopy v1.0b3"
PERFORMER "Jim Gustin And Truth Jones"
TITLE "Can't Shed A Tear "
FILE "Jim Gustin And Truth Jones - Can't Shed A Tear.flac" WAVE
  TRACK 01 AUDIO
    TITLE "I Gotta Sing"
    PERFORMER "Jim Gustin And Truth Jones"
    INDEX 01 00:00:00
  TRACK 02 AUDIO
    TITLE "Can't Shed A Tear"
    PERFORMER "Jim Gustin And Truth Jones"
    INDEX 01 03:21:56
  TRACK 03 AUDIO
    TITLE "No Faith In Forever"
    PERFORMER "Jim Gustin And Truth Jones"
    INDEX 01 07:45:02
  TRACK 04 AUDIO
    TITLE "If God Made Something Better"
    PERFORMER "Jim Gustin And Truth Jones"
    INDEX 01 13:03:58
  TRACK 05 AUDIO
    TITLE "Beauty For Ashes"
    PERFORMER "Jim Gustin And Truth Jones"
    INDEX 01 16:11:27
  TRACK 06 AUDIO
    TITLE "Why, Why, Why"
    PERFORMER "Jim Gustin And Truth Jones"
    INDEX 01 22:56:66
  TRACK 07 AUDIO
    TITLE "Good-Bye"
    PERFORMER "Jim Gustin And Truth Jones"
    INDEX 01 27:54:03
  TRACK 08 AUDIO
    TITLE "My Baby Just Left Me Again"
    PERFORMER "Jim Gustin And Truth Jones"
    INDEX 01 32:18:09
  TRACK 09 AUDIO
    TITLE "Fill Up My Soul"
    PERFORMER "Jim Gustin And Truth Jones"
    INDEX 01 36:18:47
  TRACK 10 AUDIO
    TITLE "You Never Gave Up On Me"
    PERFORMER "Jim Gustin And Truth Jones"
    INDEX 01 41:00:41
  TRACK 11 AUDIO
    TITLE "You Answer Me"
    PERFORMER "Jim Gustin And Truth Jones"
    INDEX 01 45:07:09
  TRACK 12 AUDIO
    TITLE "Life Is Hard, Live With It"
    PERFORMER "Jim Gustin And Truth Jones"
    INDEX 00 50:36:42
    INDEX 01 50:37:04
  TRACK 13 AUDIO
    TITLE "What Do You See In Me"
    PERFORMER "Jim Gustin And Truth Jones"
    INDEX 00 53:59:43
    INDEX 01 54:00:43
  TRACK 14 AUDIO
    TITLE "Say Amen"
    PERFORMER "Jim Gustin And Truth Jones"
    INDEX 01 59:16:24

Правила, инструкции, FAQ!!!
Торрент  Добавлен [16 мар 2014, 00:08] Скачать торрент Магнет ссылка
Скачать торрент
[ Размер 19.18 КБ / Просмотров 21 ]

Статус  
 
Размер  459.77 МБ
Приватный: Нет (DHT включён)
.torrent скачан  0
 


     Отправить личное сообщение
   
Страница 1 из 1
Показать сообщения за:  Поле сортировки  
Начать новую тему Ответить на тему


Сейчас этот форум просматривают: нет зарегистрированных пользователей и гости: 0


Вы не можете начинать темы
Вы не можете отвечать на сообщения
Вы не можете редактировать свои сообщения
Вы не можете удалять свои сообщения
Вы не можете добавлять вложения

Перейти:  
cron
cron