Начать новую тему Ответить на тему
Статистика раздачи
Размер: 2.95 ГБ | Добавлен: 01 июл 2017, 08:22 | Скачали: 3
Сидеров: 4  [0 байт/сек]    Личеров: 1  [0 байт/сек]
Пред. тема | След. тема 

Автор
Сообщение

СообщениеДобавлено: 01 июл 2017, 08:22 

Ответить с цитатой 

Jennifer Lopez / On The 6
Формат записи/Источник записи: [SACD-R][OF]
Наличие водяных знаков: Нет
Год издания/переиздания диска: 2000
Жанр: Pop, Latin
Издатель(лейбл): Epic
Продолжительность: 62:02
Наличие сканов в содержимом раздачи: Да (сканы)
Треклист:
1. If You Had My Love
2. Should've Never
3. Too Late
4. Feelin' So Good
5. Let's Get Loud
6. Could This Be Love
7. No Me Ames (Tropical Remix)
8. Waiting For Tonight
9. Open Off My Love
10. Promise Me You'll Try
11. It's Not That Serious
12. Talk About Us
13. No Me Ames (Ballad Version)
14. Una Noche Mas
Контейнер: ISO (*.iso)
Тип рипа: image
Разрядность: 2.8 MHz
Формат: DSD
Количество каналов: 2.0
Код:
foobar2000 1.3.13 / Замер динамического диапазона (DR) 1.1.1
Дата отчёта:  2016-12-06 17:14:37
--------------------------------------------------------------------------------
Анализ:   ? / ?
--------------------------------------------------------------------------------
DR         Пики         RMS           Продолжительность трека
--------------------------------------------------------------------------------
DR9        0.00 дБ   -10.91 дБ      4:25 01-If You Had My Love
DR9        0.00 дБ   -10.90 дБ      6:14 02-Should've Never
DR10       0.00 дБ   -10.82 дБ      4:27 03-Too Late
DR6       -0.08 дБ    -7.17 дБ      3:58 05-Let's Get Loud
DR9        0.00 дБ   -11.42 дБ      4:25 06-Could This Be Love
DR9        0.00 дБ    -9.68 дБ      4:05 08-Waiting For Tonight
DR9        0.00 дБ   -10.63 дБ      4:34 09-Open Off My Love
DR9        0.00 дБ   -11.95 дБ      3:51 10-Promise Me You'll Try
DR8        0.00 дБ   -10.15 дБ      4:16 11-It's Not That Serious
DR9        0.00 дБ   -10.33 дБ      4:34 12-Talk About Us
DR8        0.00 дБ   -10.38 дБ      4:38 13-No Me Ames (Duet with Marc Anthony) (Ballad Version)
DR9        0.00 дБ   -10.11 дБ      4:06 14-Una Noche Mas
--------------------------------------------------------------------------------
Количество треков: 12
Реальные значения DR: DR9
Частота:   88200 Гц
Каналов:   2
Разрядность:   24
Битрейт:   5645 кбит/с
Кодек:   DSD64
================================================================================
--------------------------------------------------------------------------------
Статистика для:  07-No Me Ames (Duet with Marc Anthony) (Tropical Remix)
Количество сэмплов: 26715192
Продолжительность: 5:03
--------------------------------------------------------------------------------
           Левый             Правый
Пики:                0.00 дБ     ---      0.00 дБ
Средний RMS:              -9.66 дБ     ---     -9.59 дБ
DR канала:               7.51 дБ     ---      7.46 дБ
--------------------------------------------------------------------------------
Реальные значения DR: DR7
Частота:   88200 Гц
Каналов:   2
Разрядность:   24
Битрейт:   5645 кбит/с
Кодек:   DSD64
================================================================================
--------------------------------------------------------------------------------
Статистика для:  04-Feelin' So Good (featuring Big Pun & Fat Joe)
Количество сэмплов: 28766136
Продолжительность: 5:26
--------------------------------------------------------------------------------
           Левый             Правый
Пики:                0.00 дБ     ---      0.00 дБ
Средний RMS:              -9.65 дБ     ---     -9.71 дБ
DR канала:               8.58 дБ     ---      8.56 дБ
--------------------------------------------------------------------------------
Реальные значения DR: DR9
Частота:   88200 Гц
Каналов:   2
Разрядность:   24
Битрейт:   5645 кбит/с
Кодек:   DSD64
================================================================================
Источник (релизер): https://www.discogs.com/Jennifer-Lopez-On-The-6/release/6485119
Правила, инструкции, FAQ!!!
Торрент  Добавлен [01 июл 2017, 08:22] Скачать торрент Магнет ссылка
Скачать торрент
[ Размер 15.45 КБ / Просмотров 113 ]

Статус
Проверен 
 
Размер  2.95 ГБ
Приватный: Нет (DHT включён)
.torrent скачан  3
 


     Отправить личное сообщение
   
Страница 1 из 1
Показать сообщения за:  Поле сортировки  
Начать новую тему Ответить на тему


Сейчас этот форум просматривают: нет зарегистрированных пользователей и гости: 0


Вы не можете начинать темы
Вы не можете отвечать на сообщения
Вы не можете редактировать свои сообщения
Вы не можете удалять свои сообщения
Вы не можете добавлять вложения

Перейти:  
cron
cron