Начать новую тему Ответить на тему
Статистика раздачи
Размер: 397.02 МБ | Добавлен: 16 мар 2014, 00:19 | Скачали: 0
Сидеров: 2  [0 байт/сек]    Личеров: 2  [0 байт/сек]
Пред. тема | След. тема 

Автор
Сообщение

СообщениеДобавлено: 16 мар 2014, 00:19 

Ответить с цитатой 

Jeff Beck - Best of Beck (1995)

Год: 1995
Жанр: Rock
Продолжительность: 01:05:37
Лейбл: Epic Records Grup
Каталог: EK 646889

Кодек: FLAC (tracks+.cue +log)
Битрейт: Lossless

Треклист:
01. The Pump (5:48)
02. People Get Ready (4:55)
03. Freeway Jam (5:01)
04. Shapes of Things (3:20)
05. Where Were You (3:17)
06. Beck's Bolero (2:53)
07. Going Down (6:51)
08. Jailhouse Rock (3:14)
09. Goodbye Pork Pie Hat (5:29)
10. Blue Wind (6:11)
11. Plynth (Water Down the Drain) (3:07)
12. Two Rivers (5:21)
13. Scatterbrain (5:40)
14. She's a Woman (4:29)
Код:
Код:
Exact Audio Copy V0.99 prebeta 5 from 4. May 2009

EAC extraction logfile from 27. October 2010, 3:47

Jeff Beck / Best of Beck

Used drive  : ATAPI   iHAS124   B   Adapter: 0  ID: 0

Read mode               : Secure
Utilize accurate stream : Yes
Defeat audio cache      : Yes
Make use of C2 pointers : No

Read offset correction                      : 6
Overread into Lead-In and Lead-Out          : No
Fill up missing offset samples with silence : Yes
Delete leading and trailing silent blocks   : No
Null samples used in CRC calculations       : Yes
Used interface                              : Native Win32 interface for Win NT & 2000
Gap handling                                : Appended to previous track

Used output format              : User Defined Encoder
Selected bitrate                : 768 kBit/s
Quality                         : High
Add ID3 tag                     : No
Command line compressor         : C:\Program Files (x86)\Exact Audio Copy\FLAC\FLAC.EXE
Additional command line options : -6 -V -T "ARTIST=%a" -T "TITLE=%t" -T "ALBUM=%g" -T "DATE=%y" -T "TRACKNUMBER=%n" -T "GENRE=%m" -T "COMMENT=%e" %s -o %d

TOC of the extracted CD

     Track |   Start  |  Length  | Start sector | End sector
    ---------------------------------------------------------
        1  |  0:00.00 |  5:48.32 |         0    |    26131
        2  |  5:48.32 |  4:54.60 |     26132    |    48241
        3  | 10:43.17 |  5:00.58 |     48242    |    70799
        4  | 15:44.00 |  3:19.50 |     70800    |    85774
        5  | 19:03.50 |  3:17.37 |     85775    |   100586
        6  | 22:21.12 |  2:52.58 |    100587    |   113544
        7  | 25:13.70 |  6:51.27 |    113545    |   144396
        8  | 32:05.22 |  3:14.20 |    144397    |   158966
        9  | 35:19.42 |  5:29.35 |    158967    |   183676
       10  | 40:49.02 |  6:11.13 |    183677    |   211514
       11  | 47:00.15 |  3:06.40 |    211515    |   225504
       12  | 50:06.55 |  5:21.12 |    225505    |   249591
       13  | 55:27.67 |  5:40.20 |    249592    |   275111
       14  | 61:08.12 |  4:29.23 |    275112    |   295309

Track  1

     Filename D:\Rips\Jeff Beck - 1995 - Best of Beck\01 - The Pump.wav

     Pre-gap length  0:00:02.00

     Peak level 98.8 %
     Track quality 100.0 %
     Test CRC E8245408
     Copy CRC E8245408
     Accurately ripped (confidence 6)  [6172FE1D]
     Copy OK

Track  2

     Filename D:\Rips\Jeff Beck - 1995 - Best of Beck\02 - People Get Ready.wav

     Pre-gap length  0:00:02.17

     Peak level 98.8 %
     Track quality 100.0 %
     Test CRC 59B106B3
     Copy CRC 59B106B3
     Accurately ripped (confidence 6)  [25D15F5C]
     Copy OK

Track  3

     Filename D:\Rips\Jeff Beck - 1995 - Best of Beck\03 - Freeway Jam.wav

     Pre-gap length  0:00:02.20

     Peak level 98.8 %
     Track quality 100.0 %
     Test CRC C04530FE
     Copy CRC C04530FE
     Accurately ripped (confidence 6)  [B53AEE6E]
     Copy OK

Track  4

     Filename D:\Rips\Jeff Beck - 1995 - Best of Beck\04 - Shapes of Things.wav

     Pre-gap length  0:00:01.68

     Peak level 98.8 %
     Track quality 100.0 %
     Test CRC 38832808
     Copy CRC 38832808
     Accurately ripped (confidence 6)  [55B5955C]
     Copy OK

Track  5

     Filename D:\Rips\Jeff Beck - 1995 - Best of Beck\05 - Where Were You.wav

     Pre-gap length  0:00:01.71

     Peak level 54.5 %
     Track quality 100.0 %
     Test CRC D105C4CD
     Copy CRC D105C4CD
     Accurately ripped (confidence 6)  [D5CC848A]
     Copy OK

Track  6

     Filename D:\Rips\Jeff Beck - 1995 - Best of Beck\06 - Beck's Bolero.wav

     Pre-gap length  0:00:02.00

     Peak level 93.3 %
     Track quality 100.0 %
     Test CRC 037EEDB5
     Copy CRC 037EEDB5
     Accurately ripped (confidence 6)  [675B0866]
     Copy OK

Track  7

     Filename D:\Rips\Jeff Beck - 1995 - Best of Beck\07 - Going Down.wav

     Pre-gap length  0:00:01.55

     Peak level 98.8 %
     Track quality 100.0 %
     Test CRC 6D79C67A
     Copy CRC 6D79C67A
     Accurately ripped (confidence 6)  [E2B2C983]
     Copy OK

Track  8

     Filename D:\Rips\Jeff Beck - 1995 - Best of Beck\08 - Jailhouse Rock.wav

     Pre-gap length  0:00:02.00

     Peak level 93.3 %
     Track quality 99.9 %
     Test CRC 7297AFFE
     Copy CRC 7297AFFE
     Accurately ripped (confidence 6)  [C68954EB]
     Copy OK

Track  9

     Filename D:\Rips\Jeff Beck - 1995 - Best of Beck\09 - Goodbye Pork Pie Hat.wav

     Pre-gap length  0:00:01.55

     Peak level 97.5 %
     Track quality 100.0 %
     Test CRC 2E40FBF7
     Copy CRC 2E40FBF7
     Accurately ripped (confidence 6)  [4B5342F5]
     Copy OK

Track 10

     Filename D:\Rips\Jeff Beck - 1995 - Best of Beck\10 - Blue Wind.wav

     Pre-gap length  0:00:01.60

     Peak level 98.8 %
     Track quality 100.0 %
     Test CRC 9DA0B702
     Copy CRC 9DA0B702
     Accurately ripped (confidence 6)  [F99DEB33]
     Copy OK

Track 11

     Filename D:\Rips\Jeff Beck - 1995 - Best of Beck\11 - Plynth (Water Down the Drain).wav

     Pre-gap length  0:00:01.68

     Peak level 88.1 %
     Track quality 100.0 %
     Test CRC 82A561F1
     Copy CRC 82A561F1
     Accurately ripped (confidence 6)  [CB486DEB]
     Copy OK

Track 12

     Filename D:\Rips\Jeff Beck - 1995 - Best of Beck\12 - Two Rivers.wav

     Pre-gap length  0:00:01.63

     Peak level 98.8 %
     Track quality 100.0 %
     Test CRC EC45FD9F
     Copy CRC EC45FD9F
     Accurately ripped (confidence 6)  [EB59F2EF]
     Copy OK

Track 13

     Filename D:\Rips\Jeff Beck - 1995 - Best of Beck\13 - Scatterbrain.wav

     Pre-gap length  0:00:02.02

     Peak level 90.1 %
     Track quality 100.0 %
     Test CRC 3D1F7CDF
     Copy CRC 3D1F7CDF
     Accurately ripped (confidence 6)  [C0991F44]
     Copy OK

Track 14

     Filename D:\Rips\Jeff Beck - 1995 - Best of Beck\14 - She's a Woman.wav

     Pre-gap length  0:00:01.62

     Peak level 98.8 %
     Track quality 99.9 %
     Test CRC 6198AA6F
     Copy CRC 6198AA6F
     Accurately ripped (confidence 6)  [B6864FDB]
     Copy OK

All tracks accurately ripped

No errors occurred

End of status report
Код:
Код:
-----------------------

DON'T MODIFY THIS FILE

-----------------------

PERFORMER: auCDtect Task Manager, ver. 1.6.0 RC1 build 1.6.0.1
Copyright (c) 2008-2010 y-soft. All rights reserved
http:/y-soft.org

ANALYZER: auCDtect: CD records authenticity detector, version 0.8.2
Copyright (c) 2004 Oleg Berngardt. All rights reserved.
Copyright (c) 2004 Alexander Djourik. All rights reserved.

FILE: 14 - She's a Woman.flac
  Size: 26623542 Hash: B361BF57E589B38CC185358D845B769A Accuracy: -m8
  Conclusion: CDDA 100%
  Signature: 3AFEFB34D7AB0C893F394C3943CD30667A2DD66A
FILE: 13 - Scatterbrain.flac
  Size: 37800995 Hash: 2D477645B79EE2574EC03402FCE02538 Accuracy: -m8
  Conclusion: CDDA 99%
  Signature: B104DD60A47FB3B27EBDB5A23A1870A81F2ECF27
FILE: 12 - Two Rivers.flac
  Size: 32900236 Hash: E02BC8A1FB2D885033C475E2299802D7 Accuracy: -m8
  Conclusion: CDDA 100%
  Signature: D4AEE97CD3D924833FCEF9393E4A2B689249B309
FILE: 11 - Plynth (Water Down the Drain).flac
  Size: 20957119 Hash: B649C7839A29D62A41030F4A3652F173 Accuracy: -m8
  Conclusion: CDDA 100%
  Signature: 1D700AD907303351506681C6F7C87E97CBD7601D
FILE: 10 - Blue Wind.flac
  Size: 40494490 Hash: 5F378CBABDEED0BAB349E74F517BF299 Accuracy: -m8
  Conclusion: CDDA 100%
  Signature: 3D6E5D44A967668055EC22EE603D40789BA69B83
FILE: 09 - Goodbye Pork Pie Hat.flac
  Size: 32253226 Hash: BC75E9050D2E29E600605401E3FC35A0 Accuracy: -m8
  Conclusion: CDDA 100%
  Signature: C42269912D181A6CF6BAD2977AE150B67FC0D12D
FILE: 08 - Jailhouse Rock.flac
  Size: 21746127 Hash: CA5A39368188A6A5338D247C6E428423 Accuracy: -m8
  Conclusion: CDDA 100%
  Signature: 9152BA77CFF1B636E2CF1EE4C227C3E0AB7EB383
FILE: 07 - Going Down.flac
  Size: 48772473 Hash: 8458E736FD5EB89D5808B10DE1F7E757 Accuracy: -m8
  Conclusion: CDDA 100%
  Signature: 358D2444A0AE04F1DD36F504627C197F5012A170
FILE: 06 - Beck's Bolero.flac
  Size: 17858134 Hash: CA67B2023886D5B051B8E78FD83D1356 Accuracy: -m8
  Conclusion: CDDA 100%
  Signature: 5797B2453977AE89CAFC695189EE31B89EB71B2F
FILE: 05 - Where Were You.flac
  Size: 14176890 Hash: F8102A0837904098B05CE30F70351E1A Accuracy: -m8
  Conclusion: CDDA 100%
  Signature: 524695C4BCBF0FF06DA88E99AF1E88A4C2D2485C
FILE: 04 - Shapes of Things.flac
  Size: 22278444 Hash: 14B13A6F29F9D62DF1CC4E73056895C8 Accuracy: -m8
  Conclusion: CDDA 99%
  Signature: 0DF38265943EE6FA98442A661DBC40AA9D34BE39
FILE: 03 - Freeway Jam.flac
  Size: 32981164 Hash: 63971B73DE77976808E9958F6D95687A Accuracy: -m8
  Conclusion: CDDA 100%
  Signature: 0556155BDE4965BA4DA45D1A4CFD679F51A12233
FILE: 02 - People Get Ready.flac
  Size: 31837512 Hash: AE8936E72C462D49B714606E6F77375F Accuracy: -m8
  Conclusion: ???
  Signature: 9B3439B5EFD7A36971F6AD59C78955FBF40ED79A
FILE: 01 - The Pump.flac
  Size: 34958052 Hash: A4886F9A308539772BD98D778219356D Accuracy: -m8
  Conclusion: CDDA 100%
  Signature: A5C7AE370763835BC529C8D3E31422FF5144BAD6
#777
Правила, инструкции, FAQ!!!
Торрент  Добавлен [16 мар 2014, 00:19] Скачать торрент Магнет ссылка
Скачать торрент
[ Размер 17.38 КБ / Просмотров 67 ]

Статус  
 
Размер  397.02 МБ
Приватный: Нет (DHT включён)
.torrent скачан  0
 


     Отправить личное сообщение
   
Страница 1 из 1
Показать сообщения за:  Поле сортировки  
Начать новую тему Ответить на тему


Сейчас этот форум просматривают: нет зарегистрированных пользователей и гости: 0


Вы не можете начинать темы
Вы не можете отвечать на сообщения
Вы не можете редактировать свои сообщения
Вы не можете удалять свои сообщения
Вы не можете добавлять вложения

Перейти:  
cron
cron