Начать новую тему Ответить на тему
Статистика раздачи
Размер: 1.64 ГБ | Добавлен: 24 авг 2016, 12:18 | Скачали: 1
Сидеров: 3  [0 байт/сек]    Личеров: 1  [0 байт/сек]
Пред. тема | След. тема 

Автор
Сообщение

СообщениеДобавлено: 24 авг 2016, 12:18 

Ответить с цитатой 

Golden Avatar - A Change Of Heart

Жанр: Jazz Rock
Носитель: LP
Год выпуска: 1976
Лейбл: Sudarshan Disc (BBT 108)
Страна-производитель: UK
Аудио кодек: FLAC
Тип рипа: image+.cue
Формат записи: 24/192
Формат раздачи: 24/192
Продолжительность: 00:42:42
Треклист:
01. World Beyond The Sky (3:33)
02. Questions Questions (3:53)
03. Bhagavad-Gita (5:40)
04. Seers Of The Truth (4:04)
05. You're Not That Body (3:44)
06. A Change Of Heart (3:08)
07. Swetadwip (8:25)
08. Oh Govinda (4:49)
09. Time For Going Home (5:24)

Источник оцифровки: автором раздачи
Код класса состояния винила: VG
Устройство воспроизведения: Pro-Ject 1-Xpression III
Головка звукоснимателя: Grado Prestige Silver
Предварительный усилитель: Pro-Ject Tube Box
АЦП: ESI Juli@
Программа-оцифровщик: WavePurity 7.5
Обработка: Нет
В раздаче
Доп.информация:
Код:
Golden Avatar biography
GOLDEN AVATAR is a Jazz Rock/ Fusion band from the United States with a very large ensemble of artists featuring on their debut album "A Change of Heart" 1976. The artists featured include founder of the band and visionary Michael Cassidy on lead vocals, guitar, Carl Bezzemer & David Stout on piano, Barry Goldsman on organ, synthesizer, Carl Lange & Steve Pinkston on bass, and Drew Lawrence on drums & percussion. Other artists complete the large musicianship gathering including Bob Conti on congas, John Goux on electric guitar, Jerry Peterson on Soprano saxophone, Rod Rozzelle on vibes, Marilyn Berger on harp, Garry Abbott, Hush Preston, David Stout & Jerry Petterson on flutes, David Stout & Bill Rechenbach on trombone, Harry Kim, David Grover & Kurt Sletten on trumpets, Gina Kronstadt, Steven Lance, Pam Thompkins, Lisa Adams, Joan Murakiani, Ulysses Roseman Jr., Tom Tally, Donna Paul & Kihae Kim on strings, and finally Madonna Slavin, Kevin Yee, Barry Goldsman, Micelle Pearlman & Alvin Marsden on background vocals.

The Hindu visionary Michael Cassidy writes all the lyrics and the music that ranges from diverse style such as big band jazz, symphonic, folk, funk and disco. The presence of orchestrated instruments such as brass and strings is a key feature. The lyrics have Spiritual weight and are sung with solid harmonies.

"Pastimes" followed in 1978 with the same extensive lineup. The album features a brand of symphonic rock on 'Visions', and an Indian-ballad 'There is a Light', with oboe, sitar and tabla. There is even Gospel flavours on 'Is it Worth the Price you Pay?' and flute dominated folk on 'Lover of the Lord'.

Cassidy's lyrics are a sardonic exploration of modernity and social decline, with a Gospel edge. GOLDEN AVATAR may remind one of BREAD, mainly due to Cassidy's soundalike voice David Gates, and also the music is reminiscent of the sounds of THE MOODY BLUES or CAT STEVENS.
Код:
foobar2000 1.3.2 / Dynamic Range Meter 1.1.1
log date: 2014-10-09 21:35:18

--------------------------------------------------------------------------------
Analyzed: Golden Avatar / A Change Of Heart
--------------------------------------------------------------------------------

DR         Peak         RMS     Duration Track
--------------------------------------------------------------------------------
DR13      -1.19 dB   -18.15 dB      3:33 01-World Beyond The Sky
DR14      -0.66 dB   -19.59 dB      3:53 02-Questions Questions
DR14      -1.36 dB   -18.98 dB      5:40 03-Bhagavad-Gita
DR14      -5.46 dB   -24.34 dB      4:04 04-Seers Of The Truth
DR13      -0.71 dB   -17.57 dB      3:44 05-You're Not That Body
DR13      -0.70 dB   -17.94 dB      3:08 06-A Change Of Heart
DR13      -1.32 dB   -18.29 dB      8:25 07-Swetadwip
DR12      -1.19 dB   -17.50 dB      4:49 08-Oh Govinda
DR13      -0.38 dB   -16.68 dB      5:24 09-Time For Going Home
--------------------------------------------------------------------------------

Number of tracks:  9
Official DR value: DR13

Samplerate:        192000 Hz
Channels:          2
Bits per sample:   24
Bitrate:           5274 kbps
Codec:             FLAC
================================================================================
Правила, инструкции, FAQ!!!
Торрент  Добавлен [24 авг 2016, 12:18] Скачать торрент Магнет ссылка
Скачать торрент
[ Размер 17.33 КБ / Просмотров 12 ]

Статус
Проверен 
 
Размер  1.64 ГБ
Приватный: Нет (DHT включён)
.torrent скачан  1
 


     Отправить личное сообщение
   
Страница 1 из 1
Показать сообщения за:  Поле сортировки  
Начать новую тему Ответить на тему


Сейчас этот форум просматривают: нет зарегистрированных пользователей и гости: 0


Вы не можете начинать темы
Вы не можете отвечать на сообщения
Вы не можете редактировать свои сообщения
Вы не можете удалять свои сообщения
Вы не можете добавлять вложения

Перейти:  
cron