Начать новую тему Ответить на тему
Статистика раздачи
Размер: 502.01 МБ | Добавлен: 16 мар 2014, 00:48 | Скачали: 0
Сидеров: 1  [0 байт/сек]    Личеров: 0  [0 байт/сек]
Пред. тема | След. тема 

Автор
Сообщение

СообщениеДобавлено: 16 мар 2014, 00:48 

Ответить с цитатой 

Jane's Addiction - Nothing's Shocking (1988)

Год: 1988
Год выхода ремастера: June 5, 2012
Издание: Audio Fidelity
Catalog Nr: AFZ 137
Жанр: Alternative Rock
Продолжительность: 00:45:27
Источник: Rehabilly(AvaxHome)
Mastered by Kevin Gray at Cohearent Audio

Кодек: FLAC
Тип рипа: Image+.cue
Битрейт: Lossless
Треклист:
01. Up The Beach (3:01)
02. Ocean Size (4:19)
03. Had A Dad (3:45)
04. Ted, Just Admit It... (7:22)
05. Standing In The Shower... Thinking (3:04)
06. Summertime Rolls (6:20)
07. Mountain Song (4:04)
08. Idiots Rule (3:01)
09. Jane Says (4:53)
10. Thank You Boys (1:05)
11. Pig's In Zen (4:32)
Код:
Код:
REM GENRE "Alternative Rock"
REM DATE 1988
REM DISCID 970AA60B
REM COMMENT "ExactAudioCopy v1.0b2"
PERFORMER "Jane's Addiction"
TITLE "Nothing's Shocking [2012 Audio Fidelity HDCD AFZ 137]"
FILE "Jane's Addiction - Nothing's Shocking (AFZ-137).flac" WAVE
  TRACK 01 AUDIO
    TITLE "Up The Beach"
    PERFORMER "Jane's Addiction"
    INDEX 01 00:00:00
  TRACK 02 AUDIO
    TITLE "Ocean Size"
    PERFORMER "Jane's Addiction"
    INDEX 01 03:01:23
  TRACK 03 AUDIO
    TITLE "Had A Dad"
    PERFORMER "Jane's Addiction"
    INDEX 01 07:20:58
  TRACK 04 AUDIO
    TITLE "Ted, Just Admit It..."
    PERFORMER "Jane's Addiction"
    INDEX 01 11:05:72
  TRACK 05 AUDIO
    TITLE "Standing In The Shower... Thinking"
    PERFORMER "Jane's Addiction"
    INDEX 01 18:28:15
  TRACK 06 AUDIO
    TITLE "Summertime Rolls"
    PERFORMER "Jane's Addiction"
    INDEX 01 21:31:66
  TRACK 07 AUDIO
    TITLE "Mountain Song"
    PERFORMER "Jane's Addiction"
    INDEX 01 27:52:16
  TRACK 08 AUDIO
    TITLE "Idiots Rule"
    PERFORMER "Jane's Addiction"
    INDEX 01 31:56:03
  TRACK 09 AUDIO
    TITLE "Jane Says"
    PERFORMER "Jane's Addiction"
    INDEX 01 34:57:15
  TRACK 10 AUDIO
    TITLE "Thank You Boys"
    PERFORMER "Jane's Addiction"
    INDEX 01 39:50:01
  TRACK 11 AUDIO
    TITLE "Pig's In Zen"
    PERFORMER "Jane's Addiction"
    INDEX 01 40:54:57

Код:
Код:
Exact Audio Copy V1.0 beta 2 from 29. April 2011

EAC extraction logfile from 19. June 2012, 22:55

Jane's Addiction / Nothing's Shocking [2012 Audio Fidelity HDCD AFZ 137]

Used drive  : HL-DT-STDVDRAM GH60N   Adapter: 0  ID: 1

Read mode               : Secure
Utilize accurate stream : Yes
Defeat audio cache      : Yes
Make use of C2 pointers : No

Read offset correction                      : 667
Overread into Lead-In and Lead-Out          : No
Fill up missing offset samples with silence : Yes
Delete leading and trailing silent blocks   : No
Null samples used in CRC calculations       : Yes
Used interface                              : Native Win32 interface for Win NT & 2000

Used output format              : User Defined Encoder
Selected bitrate                : 1024 kBit/s
Quality                         : High
Add ID3 tag                     : No
Command line compressor         : C:\Program Files (x86)\Exact Audio Copy\Flac\flac.exe
Additional command line options : -V -8 -T "artist=%albumartist%" -T "title=%title%" -T "album=%albumtitle%" -T "date=%year%" -T "genre=%genre%" -T "tracknumber=%tracknr%" %source%

TOC of the extracted CD

     Track |   Start  |  Length  | Start sector | End sector
    ---------------------------------------------------------
        1  |  0:00.00 |  3:01.23 |         0    |    13597
        2  |  3:01.23 |  4:19.35 |     13598    |    33057
        3  |  7:20.58 |  3:45.14 |     33058    |    49946
        4  | 11:05.72 |  7:22.18 |     49947    |    83114
        5  | 18:28.15 |  3:03.51 |     83115    |    96890
        6  | 21:31.66 |  6:20.25 |     96891    |   125415
        7  | 27:52.16 |  4:03.62 |    125416    |   143702
        8  | 31:56.03 |  3:01.12 |    143703    |   157289
        9  | 34:57.15 |  4:52.61 |    157290    |   179250
       10  | 39:50.01 |  1:04.56 |    179251    |   184106
       11  | 40:54.57 |  4:32.13 |    184107    |   204519

Range status and errors

Selected range

     Filename C:\EAC\Jane's Addiction - (1988) Nothing's Shocking [2012 Audio Fidelity HDCD AFZ 137].wav

     Peak level 100.0 %
     Extraction speed 1.7 X
     Range quality 100.0 %
     Test CRC 6186A094
     Copy CRC 6186A094
     Copy OK

No errors occurred

AccurateRip summary

Track  1  not present in database
Track  2  not present in database
Track  3  not present in database
Track  4  not present in database
Track  5  not present in database
Track  6  not present in database
Track  7  not present in database
Track  8  not present in database
Track  9  not present in database
Track 10  not present in database
Track 11  not present in database

None of the tracks are present in the AccurateRip database

End of status report

==== Log checksum 9480E28E4ECF5588D273F109E20C1C24A3328FBAAA77CA3FA613E006B86D3319 ====

Код:
Код:
-----------------------

DON'T MODIFY THIS FILE

-----------------------

PERFORMER: auCDtect Task Manager, ver. 1.5.1RC4 build 1.5.1.5
Copyright (c) 2008-2010 y-soft. All rights reserved
http:/y-soft.org

ANALYZER: auCDtect: CD records authenticity detector, version 0.8.2
Copyright (c) 2004 Oleg Berngardt. All rights reserved.
Copyright (c) 2004 Alexander Djourik. All rights reserved.

FILE: Jane's Addiction - Nothing's Shocking (AFZ-137).flac
  Size: 304064440 Hash: AE293800A750F550E1800763FDD0771F Accuracy: -m0
  Conclusion: CDDA 100%
  Signature: 22A2BFFC250DD538E3357F310721FD228FAD9044

Правила, инструкции, FAQ!!!
Торрент  Добавлен [16 мар 2014, 00:48] Скачать торрент Магнет ссылка
Скачать торрент
[ Размер 21.37 КБ / Просмотров 60 ]

Статус  
 
Размер  502.01 МБ
Приватный: Нет (DHT включён)
.torrent скачан  0
 


     Отправить личное сообщение
   
Страница 1 из 1
Показать сообщения за:  Поле сортировки  
Начать новую тему Ответить на тему


Сейчас этот форум просматривают: нет зарегистрированных пользователей и гости: 0


Вы не можете начинать темы
Вы не можете отвечать на сообщения
Вы не можете редактировать свои сообщения
Вы не можете удалять свои сообщения
Вы не можете добавлять вложения

Перейти:  
cron
cron