Начать новую тему Ответить на тему
Статистика раздачи
Размер: 626.21 МБ | Добавлен: 31 дек 2019, 22:37 | Скачали: 2
Сидеров: 3  [0 байт/сек]    Личеров: 1  [0 байт/сек]
Пред. тема | След. тема 

Автор
Сообщение

СообщениеДобавлено: 31 дек 2019, 22:37 

Ответить с цитатой 

Jack Jones - Where Is Love?
Формат записи/Источник записи: [TR24][OF]
Наличие водяных знаков: Нет
Год издания/переиздания диска: 1968/2018
Жанр: Pop, Vocal
Издатель (лейбл): RCA/Legacy
Продолжительность: 33:51
Наличие сканов в содержимом раздачи: Только обложка альбома
Треклист:
01. Where Is Love? (4:17)
02. Light My Fire (2:43)
03. Suzanne (3:10)
04. Lonely Afternoon (3:10)
05. (Waitin') 'Round The Bend (2:34)
06. I Really Want To Know You (2:52)
07. Good Times (3:07)
08. Valley Of The Dolls (3:27)
09. It's Nice To Be With You (2:35)
10. Dreams Are All I Have Of You (2:59)
11. Old Man River (2:58) 
 
By many measures, Jack Jones was the most popular crooner to emerge between the heyday of Elvis Presley and the rise of the Beatles. In the span of two years, he snagged two Grammys for Pop Male Performance “Lollipops and Roses” in 1962 and “Wives and Loves” in 1964 which was enough to lay a foundation for a career that lasted well into the 21st century. Although his charting hits dried up in the early ’70s prior to that, he was a fixture on the Adult Contemporary charts, racking up the number one hits “The Race Is On,” “The Impossible Dream (The Quest,)” and “Lady” between 1965 and 1967 he continued to perform in Las Vegas and on the road, making the occasional foray into pop culture, like when he sang “The Love Boat Theme” in 1980.

Контейнер: FLAC (*.flac)
Тип рипа: tracks
Разрядность: 24/96
Формат: PCM
Количество каналов: 2.0
Код:
foobar2000 1.3.9 / Dynamic Range Meter 1.1.1
log date: 2019-12-13 15:54:02
--------------------------------------------------------------------------------
Analyzed: Jack Jones / Where Is Love?
--------------------------------------------------------------------------------
DR         Peak         RMS     Duration Track
--------------------------------------------------------------------------------
DR8       -0.02 dB   -12.23 dB      4:17 01-Where Is Love?
DR10      -0.01 dB   -12.89 dB      2:43 02-Light My Fire
DR10      -0.02 dB   -13.58 dB      3:10 03-Suzanne
DR10      -0.02 dB   -14.19 dB      3:10 04-Lonely Afternoon
DR9       -0.02 dB   -11.38 dB      2:34 05-(Waitin') 'Round The Bend
DR11      -0.02 dB   -14.04 dB      2:52 06-I Really Want To Know You
DR12      -0.02 dB   -14.96 dB      3:07 07-Good Times
DR11      -0.02 dB   -15.05 dB      3:27 08-Valley Of The Dolls
DR11      -0.02 dB   -13.52 dB      2:35 09-It's Nice To Be With You
DR10      -0.02 dB   -14.78 dB      2:59 10-Dreams Are All I Have Of You
DR9       -0.02 dB   -13.10 dB      2:58 11-Old Man River
--------------------------------------------------------------------------------
Number of tracks:  11
Official DR value: DR10
Samplerate:        96000 Hz
Channels:          2
Bits per sample:   24
Bitrate:           2628 kbps
Codec:             FLAC
================================================================================
Источник: qobuz.com
 
Правила, инструкции, FAQ!!!
Торрент  Добавлен [31 дек 2019, 22:37] Скачать торрент Магнет ссылка
Скачать торрент
[ Размер 13.42 КБ / Просмотров 43 ]

Статус
Проверен 
 
Размер  626.21 МБ
Приватный: Нет (DHT включён)
.torrent скачан  2
 


     Отправить личное сообщение
   
Страница 1 из 1
Показать сообщения за:  Поле сортировки  
Начать новую тему Ответить на тему


Сейчас этот форум просматривают: нет зарегистрированных пользователей и гости: 0


Вы не можете начинать темы
Вы не можете отвечать на сообщения
Вы не можете редактировать свои сообщения
Вы не можете удалять свои сообщения
Вы не можете добавлять вложения

Перейти:  
cron
cron