Начать новую тему Ответить на тему
Статистика раздачи
Размер: 1.07 ГБ | Добавлен: 31 дек 2019, 22:37 | Скачали: 0
Сидеров: 13  [0 байт/сек]    Личеров: 1  [0 байт/сек]
Пред. тема | След. тема 

Автор
Сообщение

СообщениеДобавлено: 31 дек 2019, 22:37 

Ответить с цитатой 

Jack Jones - A Jack Jones Christmas
Формат записи/Источник записи: [TR24][OF]
Наличие водяных знаков: Нет
Издание: Remastered
Год издания/переиздания диска: 1969/2019
Жанр: Pop, Vocal, Christmas
Продолжительность: 31:14
Наличие сканов в содержимом раздачи: Только обложка альбома
Треклист:
01. Have Yourself A Merry Little Christmas (3:25)
02. Some Children See Him (3:20)
03. Little Altar Boy (2:33)
04. O Little Town Of Bethlehem (3:36)
05. Christmas Is ... (3:12)
06. Christmas Day (3:56)
07. Oh Happy Day (3:22)
08. Silver Bells (2:48)
09. Jingle Bells (2:40)
10. Oh Holy Night (2:21) 
 
For more than six decades, Jack Jones has been recognized as one of America’s premier vocalists. Frank Sinatra called him “one of the major singers of our time,” while Paul Williams noted, “He doesn’t perform a song; he lives it.” Williams would know, as one of the writers of Jones’ immortal theme to The Love Boat. But “The Love Boat” and beloved hits like “Wives and Lovers” and “Lollipops and Roses” merely scratch the surface of Jones’ remarkable career. One of the crown jewels of his impressive discography is 1964’s The Jack Jones Christmas Album. On the Kapp Records releasearranged and conducted by the great Marty ManningJones wrapped his velvet pipes around some of the most cherished Christmas favorites of all time. Lush renditions of “White Christmas,” “I’ll Be Home for Christmas,” and “The Christmas Song (Chestnuts Roasting on an Open Fire)” are among the most beautiful ever recorded, while Jones’ renditions of “Sleigh Ride,” “My Favorite Things,” and Frank Sinatra’s “Mistletoe and Holly” truly swing. Yet, a CD release always eluded this fan-favorite holiday perennial until now! Real Gone Music and Second Disc Records are proud to bring The Jack Jones Christmas Album to CD for the very first time anywhere in the world! This long-awaited, sparkling new stereo edition has been remastered by Mike Milchner from original tape sources and boasts liner notes from The Second Disc’s Joe Marchese. Today, Jack Jones continues to bring his singular, stylish vocals to stages around the world with same impeccably smooth and pure tone he brought to The Jack Jones Christmas Album. Break out the egg nog; this fanfavorite classic is sounding better than ever and ready to spread its joyous Christmas spirit once again!
For his second seasonal collection, recorded in 1969 (following 1964’s The Jack Jones Christmas Album), Jack Jones took a more eclectic, contemporary approach, including spiritual (if not specifically holiday) songs like the socially conscious “Some Children See Him” (which posited a multi-racial Christ child) and the recent Edwin Hawkins Singers hit “Oh Happy Day.” “Little Altar Boy” was also given a gospel arrangement, while “O Little Town of Bethlehem” was rendered a cappella with chorus. “Christmas Day” from the recent musical Promises, Promises may have seemed like a standard-in-the-making, though it did not become one. Still, Jones sounds more comfortable on traditional fare like “Have Yourself a Merry Little Christmas” and “Silver Bells.

Контейнер: FLAC (*.flac)Тип рипа: tracks
Разрядность: 24/192
Формат: PCM
Количество каналов: 2.0[/spoiler]
Код:
foobar2000 1.3.9 / Dynamic Range Meter 1.1.1
log date: 2019-12-13 16:20:19
--------------------------------------------------------------------------------
Analyzed: Jack Jones / A Jack Jones Christmas
--------------------------------------------------------------------------------
DR         Peak         RMS     Duration Track
--------------------------------------------------------------------------------
DR10      -0.84 dB   -16.91 dB      3:25 01-Have Yourself A Merry Little Christmas
DR10      -1.68 dB   -16.16 dB      3:20 02-Some Children See Him
DR10      -0.27 dB   -13.93 dB      2:33 03-Little Altar Boy
DR12      -1.49 dB   -19.34 dB      3:36 04-O Little Town Of Bethlehem
DR12      -2.46 dB   -18.57 dB      3:12 05-Christmas Is ...
DR11      -1.90 dB   -16.76 dB      3:56 06-Christmas Day
DR11       0.00 dB   -15.20 dB      3:22 07-Oh Happy Day
DR11      -2.66 dB   -17.91 dB      2:48 08-Silver Bells
DR12       0.00 dB   -16.90 dB      2:40 09-Jingle Bells
DR10      -2.24 dB   -15.91 dB      2:21 10-Oh Holy Night
--------------------------------------------------------------------------------
Number of tracks:  10
Official DR value: DR11
Samplerate:        192000 Hz
Channels:          2
Bits per sample:   24
Bitrate:           5071 kbps
Codec:             FLAC
================================================================================
Источник: highresaudio.com
 
Правила, инструкции, FAQ!!!
Торрент  Добавлен [31 дек 2019, 22:37] Скачать торрент Магнет ссылка
Скачать торрент
[ Размер 11.88 КБ / Просмотров 24 ]

Статус
Проверен 
 
Размер  1.07 ГБ
Приватный: Нет (DHT включён)
.torrent скачан  0
 


     Отправить личное сообщение
   
Страница 1 из 1
Показать сообщения за:  Поле сортировки  
Начать новую тему Ответить на тему


Сейчас этот форум просматривают: нет зарегистрированных пользователей и гости: 0


Вы не можете начинать темы
Вы не можете отвечать на сообщения
Вы не можете редактировать свои сообщения
Вы не можете удалять свои сообщения
Вы не можете добавлять вложения

Перейти:  
cron
cron