Начать новую тему Ответить на тему
Статистика раздачи
Размер: 1.1 ГБ | Добавлен: 31 дек 2019, 22:37 | Скачали: 0
Сидеров: 2  [0 байт/сек]    Личеров: 1  [0 байт/сек]
Пред. тема | След. тема 

Автор
Сообщение

СообщениеДобавлено: 31 дек 2019, 22:37 

Ответить с цитатой 

Jack Jones - L.A. Break Down
Формат записи/Источник записи: [TR24][OF]
Наличие водяных знаков: Нет
Год издания/переиздания диска: 1968/2018
Жанр: Pop, Vocal
Издатель (лейбл): RCA/Legacy
Продолжительность: 36:44
Наличие сканов в содержимом раздачи: Только обложка альбома
Треклист:
01. L.A. Breakdown (And Take Me In) (4:15)
02. Linda (2:36)
03. 'Round Midnight (3:11)
04. Since I Fell For You (2:54)
05. You've Changed (3:31)
06. Good-Bye (2:37)
07. Love Story (3:50)
08. Lost In The Stars (3:23)
09. I Think It's Goin' To Rain Today (3:16)
10. My Man's Gone Now (4:03)
11. But I Loved You (3:10) 
 
By many measures, Jack Jones was the most popular crooner to emerge between the heyday of Elvis Presley and the rise of the Beatles. In the span of two years, he snagged two Grammys for Pop Male Performance “Lollipops and Roses” in 1962 and “Wives and Loves” in 1964 which was enough to lay a foundation for a career that lasted well into the 21st century. Although his charting hits dried up in the early ’70s prior to that, he was a fixture on the Adult Contemporary charts, racking up the number one hits “The Race Is On,” “The Impossible Dream (The Quest,)” and “Lady” between 1965 and 1967 he continued to perform in Las Vegas and on the road, making the occasional foray into pop culture, like when he sang “The Love Boat Theme” in 1980.

Контейнер: FLAC (*.flac)
Тип рипа: tracks
Разрядность: 24/192
Формат: PCM
Количество каналов: 2.0
Код:
foobar2000 1.3.9 / Dynamic Range Meter 1.1.1
log date: 2019-12-13 15:39:05
--------------------------------------------------------------------------------
Analyzed: Jack Jones / L.A. Break Down
--------------------------------------------------------------------------------
DR         Peak         RMS     Duration Track
--------------------------------------------------------------------------------
DR9       -0.02 dB   -12.21 dB      4:15 01-L.A. Breakdown (And Take Me In)
DR10      -0.02 dB   -14.18 dB      2:36 02-Linda
DR10      -0.02 dB   -13.44 dB      3:11 03-'Round Midnight
DR10      -0.02 dB   -13.39 dB      2:54 04-Since I Fell For You
DR10      -0.02 dB   -13.25 dB      3:31 05-You've Changed
DR11      -0.02 dB   -15.47 dB      2:37 06-Good-Bye
DR10      -0.02 dB   -14.33 dB      3:50 07-Love Story
DR9       -0.02 dB   -12.55 dB      3:23 08-Lost In The Stars
DR13      -0.02 dB   -17.17 dB      3:16 09-I Think It's Goin' To Rain Today
DR10      -0.02 dB   -13.37 dB      4:03 10-My Man's Gone Now
DR11      -0.02 dB   -14.03 dB      3:10 11-But I Loved You
--------------------------------------------------------------------------------
Number of tracks:  11
Official DR value: DR10
Samplerate:        192000 Hz
Channels:          2
Bits per sample:   24
Bitrate:           4232 kbps
Codec:             FLAC
================================================================================
Источник: hdtracks.com
 
Правила, инструкции, FAQ!!!
Торрент  Добавлен [31 дек 2019, 22:37] Скачать торрент Магнет ссылка
Скачать торрент
[ Размер 12.13 КБ / Просмотров 20 ]

Статус
Проверен 
 
Размер  1.1 ГБ
Приватный: Нет (DHT включён)
.torrent скачан  0
 


     Отправить личное сообщение
   
Страница 1 из 1
Показать сообщения за:  Поле сортировки  
Начать новую тему Ответить на тему


Сейчас этот форум просматривают: нет зарегистрированных пользователей и гости: 0


Вы не можете начинать темы
Вы не можете отвечать на сообщения
Вы не можете редактировать свои сообщения
Вы не можете удалять свои сообщения
Вы не можете добавлять вложения

Перейти:  
cron