Начать новую тему Ответить на тему
Статистика раздачи
Размер: 331.18 МБ | Добавлен: 16 мар 2014, 00:39 | Скачали: 0
Сидеров: 1  [0 байт/сек]    Личеров: 0  [0 байт/сек]
Пред. тема | След. тема 

Автор
Сообщение

СообщениеДобавлено: 16 мар 2014, 00:39 

Ответить с цитатой 

Issues
- Issues


Год выпуска: 2014
Жанр: Post-Hardcore
Продолжительность: 00:43:20
Тип издания: Альбом
Страна: США



Треклист:

01. Sad Ghost
02. Mad At Myself
03. Life Of A Nine
04. The Langdon House
05. Late
06. Old Dena (By Scout)
07. Stingray Affliction
08. Never Lose Your Flames
09. Personality Cult
10. Tears On The Runway Pt. 2
11. The Settlement
12. Disappear (Remember When)


Код:
Код:
Exact Audio Copy V1.0 beta 3 from 29. August 2011

EAC extraction logfile from 15. February 2014, 2:46

Issues / Issues

Used drive  : hp      DVDRAM GT31L   Adapter: 0  ID: 0

Read mode               : Secure
Utilize accurate stream : Yes
Defeat audio cache      : Yes
Make use of C2 pointers : No

Read offset correction                      : 103
Overread into Lead-In and Lead-Out          : No
Fill up missing offset samples with silence : Yes
Delete leading and trailing silent blocks   : No
Null samples used in CRC calculations       : Yes
Used interface                              : Native Win32 interface for Win NT & 2000
Gap handling                                : Appended to previous track

Used output format              : User Defined Encoder
Selected bitrate                : 128 kBit/s
Quality                         : High
Add ID3 tag                     : No
Command line compressor         : C:\Program Files (x86)\Exact Audio Copy\Flac\flac.exe
Additional command line options : -T "artist=%artist%" -T "title=%title%" -T "album=%albumtitle%" -T "date=%year%" -T "tracknumber=%tracknr%" -T "genre=%genre%" -5 %source%

TOC of the extracted CD

     Track |   Start  |  Length  | Start sector | End sector
    ---------------------------------------------------------
        1  |  0:00.00 |  4:30.67 |         0    |    20316
        2  |  4:30.67 |  3:50.10 |     20317    |    37576
        3  |  8:21.02 |  3:13.66 |     37577    |    52117
        4  | 11:34.68 |  3:56.67 |     52118    |    69884
        5  | 15:31.60 |  3:33.17 |     69885    |    85876
        6  | 19:05.02 |  1:35.29 |     85877    |    93030
        7  | 20:40.31 |  3:37.63 |     93031    |   109368
        8  | 24:18.19 |  3:41.21 |    109369    |   125964
        9  | 27:59.40 |  3:52.49 |    125965    |   143413
       10  | 31:52.14 |  3:33.70 |    143414    |   159458
       11  | 35:26.09 |  2:31.48 |    159459    |   170831
       12  | 37:57.57 |  5:23.16 |    170832    |   195072

Track  1

     Filename C:\Users\Jake\Desktop\01 Sad Ghost.wav

     Pre-gap length  0:00:02.00

     Peak level 100.0 %
     Extraction speed 1.1 X
     Track quality 99.9 %
     Test CRC 921230DE
     Copy CRC 921230DE
     Track not present in AccurateRip database
     Copy OK

Track  2

     Filename C:\Users\Jake\Desktop\02 Mad At Myself.wav

     Peak level 100.0 %
     Extraction speed 1.4 X
     Track quality 100.0 %
     Test CRC C6E4AD8B
     Copy CRC C6E4AD8B
     Track not present in AccurateRip database
     Copy OK

Track  3

     Filename C:\Users\Jake\Desktop\03 Life Of A Nine.wav

     Peak level 100.0 %
     Extraction speed 1.2 X
     Track quality 99.9 %
     Test CRC 1F6D61A2
     Copy CRC 1F6D61A2
     Track not present in AccurateRip database
     Copy OK

Track  4

     Filename C:\Users\Jake\Desktop\04 The Langdon House.wav

     Peak level 100.0 %
     Extraction speed 1.6 X
     Track quality 100.0 %
     Test CRC 3221A190
     Copy CRC 3221A190
     Track not present in AccurateRip database
     Copy OK

Track  5

     Filename C:\Users\Jake\Desktop\05 Late.wav

     Peak level 100.0 %
     Extraction speed 1.6 X
     Track quality 100.0 %
     Test CRC 000C5C1C
     Copy CRC 000C5C1C
     Track not present in AccurateRip database
     Copy OK

Track  6

     Filename C:\Users\Jake\Desktop\06 Old Dena (By Scout).wav

     Peak level 87.2 %
     Extraction speed 1.4 X
     Track quality 100.0 %
     Test CRC F4F93CDC
     Copy CRC F4F93CDC
     Track not present in AccurateRip database
     Copy OK

Track  7

     Filename C:\Users\Jake\Desktop\07 Stingray Affliction.wav

     Peak level 100.0 %
     Extraction speed 1.8 X
     Track quality 100.0 %
     Test CRC 4B80BBF9
     Copy CRC 4B80BBF9
     Track not present in AccurateRip database
     Copy OK

Track  8

     Filename C:\Users\Jake\Desktop\08 Never Lose Your Flames.wav

     Peak level 100.0 %
     Extraction speed 1.9 X
     Track quality 100.0 %
     Test CRC 5A8F210F
     Copy CRC 5A8F210F
     Track not present in AccurateRip database
     Copy OK

Track  9

     Filename C:\Users\Jake\Desktop\09 Personality Cult.wav

     Peak level 100.0 %
     Extraction speed 2.0 X
     Track quality 100.0 %
     Test CRC FFE1EEFD
     Copy CRC FFE1EEFD
     Track not present in AccurateRip database
     Copy OK

Track 10

     Filename C:\Users\Jake\Desktop\10 Tears On The Runway Pt. 2.wav

     Peak level 100.0 %
     Extraction speed 2.0 X
     Track quality 100.0 %
     Test CRC A936B5FA
     Copy CRC A936B5FA
     Track not present in AccurateRip database
     Copy OK

Track 11

     Filename C:\Users\Jake\Desktop\11 The Settlement.wav

     Peak level 100.0 %
     Extraction speed 2.0 X
     Track quality 100.0 %
     Test CRC 9781EFBA
     Copy CRC 9781EFBA
     Track not present in AccurateRip database
     Copy OK

Track 12

     Filename C:\Users\Jake\Desktop\12 Disappear (Remember When).wav

     Peak level 100.0 %
     Extraction speed 2.3 X
     Track quality 100.0 %
     Test CRC 1EC62F1D
     Copy CRC 1EC62F1D
     Track not present in AccurateRip database
     Copy OK

None of the tracks are present in the AccurateRip database

No errors occurred

End of status report

Код:
Код:
-----------------------

DON'T MODIFY THIS FILE

-----------------------

PERFORMER: auCDtect Task Manager, ver. 1.6.0 RC1 build 1.6.0.1
Copyright (c) 2008-2010 y-soft. All rights reserved
http:/y-soft.org

ANALYZER: auCDtect: CD records authenticity detector, version 0.8.2
Copyright (c) 2004 Oleg Berngardt. All rights reserved.
Copyright (c) 2004 Alexander Djourik. All rights reserved.

FILE: 11. Issues - The Settlement.flac
  Size: 20812346 Hash: 6BD7B541992734BB75FE3D9A06B824BD Accuracy: -m0
  Conclusion: CDDA 99%
  Signature: 4083AF363D488C851C8F5E398EF2BB8B01AB8EF8
FILE: 10. Issues - Tears On The Runway Pt. 2.flac
  Size: 27674842 Hash: 04854B2CC8778DC387E1353DBC38EBE5 Accuracy: -m0
  Conclusion: CDDA 100%
  Signature: C2E0D515561D164635392662D5B33BEB995EDDF0
FILE: 09. Issues - Personality Cult.flac
  Size: 31305955 Hash: 2C243CCEA31529A6208890607958F949 Accuracy: -m0
  Conclusion: CDDA 100%
  Signature: 9FCF1110AA357CAFFE070A95F3B82473B155E435
FILE: 08. Issues - Never Lose Your Flames.flac
  Size: 30113311 Hash: 48569EE8D3CDAE9F740F1919AC826B28 Accuracy: -m0
  Conclusion: CDDA 100%
  Signature: C9AF899E0A2A9227960489C2C9A80E2D47309E42
FILE: 07. Issues - Stingray Affliction.flac
  Size: 30207321 Hash: 574AB7CC4B958BC75BB742DE2A44B823 Accuracy: -m0
  Conclusion: CDDA 100%
  Signature: EB5FBC821939DA17CA4C704831DF575BFBD4064F
FILE: 06. Issues - Old Dena (By Scout).flac
  Size: 10046904 Hash: 80882F9A26072A05C7E40BB3CF297AB1 Accuracy: -m0
  Conclusion: CDDA 100%
  Signature: 9C103A39210A739B9F893D26345B26FA62983202
FILE: 05. Issues - Late.flac
  Size: 28967853 Hash: 672C3718EF9DD0C7901464FD85054ACF Accuracy: -m0
  Conclusion: CDDA 100%
  Signature: 007D9A8E54D58D1A8AD53B2B39AE3915AAD7E187
FILE: 04. Issues - The Langdon House.flac
  Size: 32448555 Hash: 0245E5320E6AF24009BAD3295B385763 Accuracy: -m0
  Conclusion: CDDA 100%
  Signature: 52C3F05A15A596FF723FE07D3312F71A9833E75E
FILE: 03. Issues - Life Of A Nine.flac
  Size: 26521673 Hash: C09C52149FC79B5079F2B05257EE7200 Accuracy: -m0
  Conclusion: CDDA 100%
  Signature: 59898492B927FA5B57939A45C1E0ECEA83CEF56B
FILE: 02. Issues - Mad At Myself.flac
  Size: 32141221 Hash: CBA23FF76C22C021272CE7AB3A0D5824 Accuracy: -m0
  Conclusion: CDDA 100%
  Signature: B20F544F054840124BF0635EA071B7AF053673F0
FILE: 01. Issues - Sad Ghost.flac
  Size: 34717218 Hash: FAD6F0D6580E5831C42245BE9885FC05 Accuracy: -m0
  Conclusion: CDDA 100%
  Signature: 4BF89ED9D624E1044C3CFB17530B744C3E98F245
FILE: 12. Issues - Disappear (Remember When).flac
  Size: 42144704 Hash: EEB571CB8670C3D8B476007A4F557B5B Accuracy: -m0
  Conclusion: CDDA 100%
  Signature: 4A499A96CA43EC5BA48F00F79B70FEF729DBBF65


Тип рипа: Tracks+.cue
Аудиокодек: FLAC
Битрейт аудио: lossless
Правила, инструкции, FAQ!!!
Торрент  Добавлен [16 мар 2014, 00:39] Скачать торрент Магнет ссылка
Скачать торрент
[ Размер 14.54 КБ / Просмотров 29 ]

Статус  
 
Размер  331.18 МБ
Приватный: Нет (DHT включён)
.torrent скачан  0
 


     Отправить личное сообщение
   
Страница 1 из 1
Показать сообщения за:  Поле сортировки  
Начать новую тему Ответить на тему


Сейчас этот форум просматривают: нет зарегистрированных пользователей и гости: 0


Вы не можете начинать темы
Вы не можете отвечать на сообщения
Вы не можете редактировать свои сообщения
Вы не можете удалять свои сообщения
Вы не можете добавлять вложения

Перейти:  
cron