Начать новую тему Ответить на тему
Статистика раздачи
Размер: 1.15 ГБ | Добавлен: 24 авг 2016, 14:18 | Скачали: 3
Сидеров: 86  [0 байт/сек]    Личеров: 0  [0 байт/сек]
Пред. тема | След. тема 

Автор
Сообщение

СообщениеДобавлено: 24 авг 2016, 14:18 

Ответить с цитатой 

The Shadows – Mustang

Жанр: Instrumental, Acoustic, Rock & Roll
Носитель: LP
Год выпуска: 1972 (Compilation)
Лейбл: Music For Pleasure ‎(MFP 5266)
Страна-производитель: Netherlands
Аудио кодек: FLAC
Тип рипа: image+.cue
Формат записи: 24/192
Формат раздачи: 24/192
Продолжительность: 00:29:40
Треклист:
01. Mustang (2:45)
02. Shane (2:24)
03. Granada (2:40)
04. Autumn (From Cinderella) (1:59)
05. Flyder And The Spy (From Cinderella) (2:05)
06. Little Princess (3:14)
07. Shotgun (2:09)
08. Giant (2:43)
09. Adios Muchachas (2:20)
10. Alice In Sunderland (2:40)
11. It's Been A Blue Day (2:09)
12. Valencia (2:32)

Источник оцифровки: автором раздачи
Код класса состояния винила: Ex-
Устройство воспроизведения: Pro-Ject 1-Xpression III
Головка звукоснимателя: Grado Prestige Silver
Предварительный усилитель: Pro-Ject Tube Box
АЦП: ESI Juli@
Программа-оцифровщик: WavePurity
Обработка: Нет
В раздаче
Доп. информация:
Код:
foobar2000 1.3.2 / Dynamic Range Meter 1.1.1
log date: 2015-01-13 16:44:54

--------------------------------------------------------------------------------
Analyzed: The Shadows / Mustang
--------------------------------------------------------------------------------

DR         Peak         RMS     Duration Track
--------------------------------------------------------------------------------
DR12      -0.84 dB   -16.24 dB      2:45 01-Mustang
DR12      -0.71 dB   -14.84 dB      2:24 02-Shane
DR11      -1.34 dB   -15.29 dB      2:40 03-Granada
DR12      -2.84 dB   -17.18 dB      1:59 04-Autumn (From Cinderella)
DR12      -1.54 dB   -15.92 dB      2:05 05-Flyder And The Spy (From Cinderella)
DR10      -0.30 dB   -15.63 dB      3:14 06-Little Princess
DR12      -0.89 dB   -15.21 dB      2:09 07-Shotgun
DR13      -1.69 dB   -16.36 dB      2:43 08-Giant
DR10      -3.29 dB   -16.21 dB      2:20 09-Adios Muchachas
DR10      -2.22 dB   -14.19 dB      2:40 10-Alice In Sunderland
DR11      -1.49 dB   -13.89 dB      2:09 11-It's Been A Blue Day
DR11      -0.38 dB   -14.76 dB      2:32 12-Valencia
--------------------------------------------------------------------------------

Number of tracks:  12
Official DR value: DR11

Samplerate:        192000 Hz
Channels:          2
Bits per sample:   24
Bitrate:           5338 kbps
Codec:             FLAC
================================================================================
Правила, инструкции, FAQ!!!
Торрент  Добавлен [24 авг 2016, 14:18] Скачать торрент Магнет ссылка
Скачать торрент
[ Размер 12.32 КБ / Просмотров 19 ]

Статус
Проверен 
 
Размер  1.15 ГБ
Приватный: Нет (DHT включён)
.torrent скачан  3
 


     Отправить личное сообщение
   
Страница 1 из 1
Показать сообщения за:  Поле сортировки  
Начать новую тему Ответить на тему


Сейчас этот форум просматривают: нет зарегистрированных пользователей и гости: 0


Вы не можете начинать темы
Вы не можете отвечать на сообщения
Вы не можете редактировать свои сообщения
Вы не можете удалять свои сообщения
Вы не можете добавлять вложения

Перейти:  
cron
cron