Начать новую тему Ответить на тему
Статистика раздачи
Размер: 923.17 МБ | Добавлен: 24 авг 2016, 14:23 | Скачали: 0
Сидеров: 2  [0 байт/сек]    Личеров: 0  [0 байт/сек]
Пред. тема | След. тема 

Автор
Сообщение

СообщениеДобавлено: 24 авг 2016, 14:23 

Ответить с цитатой 

Alien Sex Fiend - Open Head Surgery

Жанр: Industrial, Electro
Носитель: LP
Год выпуска: 1992
Лейбл: Anagram Records - GRAM 51
Страна-производитель: UK / France
Аудио кодек: FLAC
Тип рипа: tracks+.cue
Формат записи: 24/96
Формат раздачи: 24/96
Продолжительность: 00:44:51
Side 1

A1 - Clockwork Banana Banana-Moon 6:35
Backing Vocals - The Banana People
Drums, Percussion - Johnnie Ha Ha, Rat Fink
Guitar [Chunky] - Doc Milton
Guitar [Space] - Paul Fenech
Keyboards, Electronics [Space Sounds] - Mrs Fiend
Saxophone - Claire Hirst
Vocals - Nik Fiend

A2 - Magic 5:06
Backing Vocals - Michelle Fenech, Mrs Fiend
Drums, Bongos - Rat Fink
Guitar [Dobro] - Paul Fenech
Lead Guitar - Doc Milton
Lead Vocals [Main Vocals] - Nik Fiend
Sampler, Electronics [Pulse], Strings - Mrs Fiend
Saxophone - Claire Hirst

A3 - Class Of '69 6:34
Bass, Piano, Strings - Mrs Fiend
Drums [Live], Percussion - Rat Fink
Guitar - Doc Milton
Vocals - Nik Fiend

A4 - Alien Sex Fiend 5:17
Backing Vocals - Snazzy Geoff, Mrs F, Nik, Rat Fink
Electronic Drums [Beat], Percussion, Keyboards - Mrs Fiend
Guitar [Tripped Out] - Doc Milton
Lead Vocals - Mrs Fiend, Nik Fiend
Sampler [Surreal] - Nik Fiend


Side 2

B1 - Coma 6:30
Electronic Drums [Stonk Beat], Keyboards, Sampler - Mrs Fiend
Guitar - Rat Fink
Vocals, Sampler - Nik Fiend

B2 - Lickin' Ma Bone 3:44
Bass - Geoff Griffith
Drums [Backbeat Snare] - Johnnie Ha Ha
Guitar - Rat Fink, Doc Milton
Keyboards, Sampler, Electronic Drums [Beat] - Mrs Fiend
Organ [Choir Keys] - Doc Milton
Vocals, Sampler - Nik Fiend

B3 - Stre$$ed Out! 6:43
Backing Vocals - Geoff Griffith, Mrs Fiend, Paul Bainbridge, Rat Fink, Doc Milton
Drums [Live], Sampler - Rat Fink
Electronic Drums [Beatbox] - Doc Milton
Percussion, Noises - Mrs Fiend
Vocals, Sampler - Nik Fiend

B4 - B-B-Bone Boogie 4:25
Electronic Drums [Beat], Keyboards, Performer [Giggles, Laffs] - Mrs Fiend
Guitar - Rat Fink
Percussion [Bip Bop] - Doc Milton
Scratches - M.C. (Monster Chopper) 'Snazzy' Geoff
Vocals - Nik Fiend
Companies, etc.

Phonographic Copyright (p) - Anagram Records
Copyright (c) - Anagram Records
Distributed By - Pinnacle (3)
Recorded At - Steady State Music
Mixed At - Steady State Music

Credits

Engineer - Geoff Griffith
Layout - The Wolfman
Mastered By - Denis Blackham, George Peckham
Photography By [Band Photo] - Patrick Gilbert
Producer, Artwork - Mrs Fiend, Nik Fiend
Written-By - A. Wilson (tracks: B2, B3), C. Wade, N. Wade, S. Milton (tracks: B3)

Notes

Includes a printed inner-sleeve with lyric.
Recorded and mixed at Steady State Music, Norwich.
℗ & © 1992 Anagram Records: a division of Cherry Red Records Ltd.
Sleeve: Made in England
Record: Made in France

Barcode and Other Identifiers

Barcode: 5 013929 205116
Источник оцифровки: третьим лицом
Код класса состояния винила: Ex
Устройство воспроизведения: DUAL 604
Головка звукоснимателя: DUAL DMS 240 E
Предварительный усилитель: NAD Model 60
АЦП: TASCAM US-122 MKII
Программа-оцифровщик: Adobe Audition CS6
Обработка: Light declicking in Izotope RX3 Advanced
Доп. информация:
Послушал - не мое. Решил выложить, так как на трекере нет. Может кому надо.
foobar2000 1.2.4 / Dynamic Range Meter 1.1.1
log date: 2014-11-12 08:58:26

--------------------------------------------------------------------------------
Analyzed: Alien Sex Fiend / Open Head Surgery
--------------------------------------------------------------------------------

DR Peak RMS Duration Track
--------------------------------------------------------------------------------
DR11 -0.30 dB -13.73 dB 6:34 01-Clockwork Banana Banana-Moon
DR14 -0.59 dB -17.39 dB 5:07 02-Magic
DR13 -0.30 dB -16.15 dB 6:33 03-Class Of '69
DR13 -2.85 dB -17.82 dB 5:14 04-Alien Sex Fiend
DR12 -1.74 dB -16.86 dB 6:10 05-Coma
DR12 -0.30 dB -15.77 dB 4:04 06-Lickin' Ma Bone
DR14 -0.30 dB -16.87 dB 6:42 07-Stre$$ed Out!
DR11 -0.53 dB -13.46 dB 4:27 08-B-B-Bone Boogie
--------------------------------------------------------------------------------

Number of tracks: 8
Official DR value: DR13

Samplerate: 96000 Hz
Channels: 2
Bits per sample: 24
Bitrate: 3015 kbps
Codec: FLAC
================================================================================
Правила, инструкции, FAQ!!!
Торрент  Добавлен [24 авг 2016, 14:23] Скачать торрент Магнет ссылка
Скачать торрент
[ Размер 19.36 КБ / Просмотров 8 ]

Статус
Проверен 
 
Размер  923.17 МБ
Приватный: Нет (DHT включён)
.torrent скачан  0
 


     Отправить личное сообщение
   
Страница 1 из 1
Показать сообщения за:  Поле сортировки  
Начать новую тему Ответить на тему


Сейчас этот форум просматривают: нет зарегистрированных пользователей и гости: 0


Вы не можете начинать темы
Вы не можете отвечать на сообщения
Вы не можете редактировать свои сообщения
Вы не можете удалять свои сообщения
Вы не можете добавлять вложения

Перейти:  
cron
cron