Начать новую тему Ответить на тему
Статистика раздачи
Размер: 363.71 МБ | Добавлен: 16 мар 2014, 00:38 | Скачали: 2
Сидеров: 7  [0 байт/сек]    Личеров: 0  [0 байт/сек]
Пред. тема | След. тема 

Автор
Сообщение

СообщениеДобавлено: 16 мар 2014, 00:38 

Ответить с цитатой 

Imagine Dragons - Night Visions (Best Buy Exclusive Edition) (2012)

Год:
2012
Жанр: Indie Rock, Alternative
Продолжительность: 00:51:41
Издатель (лейбл): Interscope
Номер по каталогу: B0017324-02

Кодек: FLAC
Битрейт: Lossless
Тип рипа: tracks+.cue
Треклист:

01. Radioactive [00:03:06]
02. Tiptoe [00:03:14]
03. It's Time [00:04:00]
04. Demons [00:02:57]
05. On Top Of The World [00:03:12]
06. Amsterdam [00:04:01]
07. Hear Me [00:03:55]
08. Every Night [00:03:37]
09. Bleeding Out [00:03:43]
10. Underdog [00:03:29]
11. Nothing Left To Say/Rocks [00:08:58]
12. Selene (Bonus Track) [00:04:01]
13. The River (Bonus Track) [00:03:23]
Код:
Код:
X Lossless Decoder version 20120908 (141.1)

XLD extraction logfile from 2012-09-15 18:25:28 -0500

Imagine Dragons / Night Visions (Best Buy Exclusive Edition)

Used drive : HL-DT-ST DVD-RW GH41N (revision PQ05)

Ripper mode             : XLD Secure Ripper
Disable audio cache     : OK for the drive with a cache less than 1375KiB
Make use of C2 pointers : NO
Read offset correction  : 667
Max retry count         : 20
Gap status              : Analyzed, Appended

TOC of the extracted CD
     Track |   Start  |  Length  | Start sector | End sector
    ---------------------------------------------------------
        1  | 00:00:00 | 03:06:61 |         0    |    14010
        2  | 03:06:61 | 03:14:15 |     14011    |    28575
        3  | 06:21:01 | 04:00:23 |     28576    |    46598
        4  | 10:21:24 | 02:57:38 |     46599    |    59911
        5  | 13:18:62 | 03:12:21 |     59912    |    74332
        6  | 16:31:08 | 04:01:32 |     74333    |    92439
        7  | 20:32:40 | 03:55:29 |     92440    |   110093
        8  | 24:27:69 | 03:37:26 |    110094    |   126394
        9  | 28:05:20 | 03:43:08 |    126395    |   143127
       10  | 31:48:28 | 03:29:33 |    143128    |   158835
       11  | 35:17:61 | 08:58:32 |    158836    |   199217
       12  | 44:16:18 | 04:01:57 |    199218    |   217349
       13  | 48:18:00 | 03:23:52 |    217350    |   232626

AccurateRip Summary
    Disc not found in AccurateRip DB.

All Tracks
    Album gain               : -10.61 dB
    Peak                     : 1.000000
    Statistics
        Read error                           : 0
        Jitter error (maybe fixed)           : 0
        Retry sector count                   : 0
        Damaged sector count                 : 0

Track 01
    Filename : /Volumes/hammygreen/Imagine Dragons - Night Visions (Best Buy Exclusive Edition) [2012] [FLAC]/01 Imagine Dragons - Radioactive.flac
    Pre-gap length : 00:02:00

    Track gain               : -11.64 dB
    Peak                     : 0.944061
    CRC32 hash (test run)    : 6685BAA2
    CRC32 hash               : 6685BAA2
    CRC32 hash (skip zero)   : 0449881C
    AccurateRip v1 signature : F8C9EC46
    AccurateRip v2 signature : F6D683D9
        ->Track not present in AccurateRip database.
    Statistics
        Read error                           : 0
        Jitter error (maybe fixed)           : 0
        Retry sector count                   : 0
        Damaged sector count                 : 0

Track 02
    Filename : /Volumes/hammygreen/Imagine Dragons - Night Visions (Best Buy Exclusive Edition) [2012] [FLAC]/02 Imagine Dragons - Tiptoe.flac

    Track gain               : -10.26 dB
    Peak                     : 0.966064
    CRC32 hash (test run)    : 8C1D687D
    CRC32 hash               : 8C1D687D
    CRC32 hash (skip zero)   : BD5B0D35
    AccurateRip v1 signature : 7AAD615A
    AccurateRip v2 signature : 31B631FB
        ->Track not present in AccurateRip database.
    Statistics
        Read error                           : 0
        Jitter error (maybe fixed)           : 0
        Retry sector count                   : 0
        Damaged sector count                 : 0

Track 03
    Filename : /Volumes/hammygreen/Imagine Dragons - Night Visions (Best Buy Exclusive Edition) [2012] [FLAC]/03 Imagine Dragons - It's Time.flac
    Pre-gap length : 00:01:15

    Track gain               : -10.61 dB
    Peak                     : 0.966064
    CRC32 hash (test run)    : 94801AAD
    CRC32 hash               : 94801AAD
    CRC32 hash (skip zero)   : 1E793954
    AccurateRip v1 signature : FF4AD3AD
    AccurateRip v2 signature : D374B43D
        ->Track not present in AccurateRip database.
    Statistics
        Read error                           : 0
        Jitter error (maybe fixed)           : 0
        Retry sector count                   : 0
        Damaged sector count                 : 0

Track 04
    Filename : /Volumes/hammygreen/Imagine Dragons - Night Visions (Best Buy Exclusive Edition) [2012] [FLAC]/04 Imagine Dragons - Demons.flac
    Pre-gap length : 00:02:24

    Track gain               : -11.93 dB
    Peak                     : 1.000000
    CRC32 hash (test run)    : C943F415
    CRC32 hash               : C943F415
    CRC32 hash (skip zero)   : 92F25114
    AccurateRip v1 signature : D56ACC39
    AccurateRip v2 signature : 91C1DE9C
        ->Track not present in AccurateRip database.
    Statistics
        Read error                           : 0
        Jitter error (maybe fixed)           : 0
        Retry sector count                   : 0
        Damaged sector count                 : 0

Track 05
    Filename : /Volumes/hammygreen/Imagine Dragons - Night Visions (Best Buy Exclusive Edition) [2012] [FLAC]/05 Imagine Dragons - On Top Of The World.flac
    Pre-gap length : 00:02:23

    Track gain               : -10.15 dB
    Peak                     : 0.966064
    CRC32 hash (test run)    : B20233FB
    CRC32 hash               : B20233FB
    CRC32 hash (skip zero)   : CD54EFA8
    AccurateRip v1 signature : 8F01A785
    AccurateRip v2 signature : 63139DDD
        ->Track not present in AccurateRip database.
    Statistics
        Read error                           : 0
        Jitter error (maybe fixed)           : 0
        Retry sector count                   : 0
        Damaged sector count                 : 0

Track 06
    Filename : /Volumes/hammygreen/Imagine Dragons - Night Visions (Best Buy Exclusive Edition) [2012] [FLAC]/06 Imagine Dragons - Amsterdam.flac
    Pre-gap length : 00:02:33

    Track gain               : -10.43 dB
    Peak                     : 0.966064
    CRC32 hash (test run)    : 46DB8A95
    CRC32 hash               : 46DB8A95
    CRC32 hash (skip zero)   : 203913F1
    AccurateRip v1 signature : 85013B6D
    AccurateRip v2 signature : 1EF1C7AF
        ->Track not present in AccurateRip database.
    Statistics
        Read error                           : 0
        Jitter error (maybe fixed)           : 0
        Retry sector count                   : 0
        Damaged sector count                 : 0

Track 07
    Filename : /Volumes/hammygreen/Imagine Dragons - Night Visions (Best Buy Exclusive Edition) [2012] [FLAC]/07 Imagine Dragons - Hear Me.flac

    Track gain               : -10.74 dB
    Peak                     : 0.966064
    CRC32 hash (test run)    : E7EB8AB4
    CRC32 hash               : E7EB8AB4
    CRC32 hash (skip zero)   : 75DAB3F7
    AccurateRip v1 signature : 49C8049D
    AccurateRip v2 signature : 242C3BA7
        ->Track not present in AccurateRip database.
    Statistics
        Read error                           : 0
        Jitter error (maybe fixed)           : 0
        Retry sector count                   : 0
        Damaged sector count                 : 0

Track 08
    Filename : /Volumes/hammygreen/Imagine Dragons - Night Visions (Best Buy Exclusive Edition) [2012] [FLAC]/08 Imagine Dragons - Every Night.flac
    Pre-gap length : 00:03:11

    Track gain               : -9.78 dB
    Peak                     : 0.966064
    CRC32 hash (test run)    : 315572B1
    CRC32 hash               : 315572B1
    CRC32 hash (skip zero)   : E0348162
    AccurateRip v1 signature : DB9E777D
    AccurateRip v2 signature : 32A8AED3
        ->Track not present in AccurateRip database.
    Statistics
        Read error                           : 0
        Jitter error (maybe fixed)           : 0
        Retry sector count                   : 0
        Damaged sector count                 : 0

Track 09
    Filename : /Volumes/hammygreen/Imagine Dragons - Night Visions (Best Buy Exclusive Edition) [2012] [FLAC]/09 Imagine Dragons - Bleeding Out.flac
    Pre-gap length : 00:01:61

    Track gain               : -11.43 dB
    Peak                     : 1.000000
    CRC32 hash (test run)    : CF4074C2
    CRC32 hash               : CF4074C2
    CRC32 hash (skip zero)   : E0806E0D
    AccurateRip v1 signature : 81C035AA
    AccurateRip v2 signature : 805467E9
        ->Track not present in AccurateRip database.
    Statistics
        Read error                           : 0
        Jitter error (maybe fixed)           : 0
        Retry sector count                   : 0
        Damaged sector count                 : 0

Track 10
    Filename : /Volumes/hammygreen/Imagine Dragons - Night Visions (Best Buy Exclusive Edition) [2012] [FLAC]/10 Imagine Dragons - Underdog.flac
    Pre-gap length : 00:02:04

    Track gain               : -10.56 dB
    Peak                     : 0.940796
    CRC32 hash (test run)    : 0AD79665
    CRC32 hash               : 0AD79665
    CRC32 hash (skip zero)   : A6BD6A71
    AccurateRip v1 signature : 66746919
    AccurateRip v2 signature : E260B83D
        ->Track not present in AccurateRip database.
    Statistics
        Read error                           : 0
        Jitter error (maybe fixed)           : 0
        Retry sector count                   : 0
        Damaged sector count                 : 0

Track 11
    Filename : /Volumes/hammygreen/Imagine Dragons - Night Visions (Best Buy Exclusive Edition) [2012] [FLAC]/11 Imagine Dragons - Nothing Left To Say/Rocks.flac
    Pre-gap length : 00:02:55

    Track gain               : -10.05 dB
    Peak                     : 1.000000
    CRC32 hash (test run)    : 3F942699
    CRC32 hash               : 3F942699
    CRC32 hash (skip zero)   : FF0E94F3
    AccurateRip v1 signature : 49E842CF
    AccurateRip v2 signature : D3B9D299
        ->Track not present in AccurateRip database.
    Statistics
        Read error                           : 0
        Jitter error (maybe fixed)           : 0
        Retry sector count                   : 0
        Damaged sector count                 : 0

Track 12
    Filename : /Volumes/hammygreen/Imagine Dragons - Night Visions (Best Buy Exclusive Edition) [2012] [FLAC]/12 Imagine Dragons - Selene (Bonus Track).flac
    Pre-gap length : 00:02:60

    Track gain               : -9.54 dB
    Peak                     : 0.966064
    CRC32 hash (test run)    : 71FE50F2
    CRC32 hash               : 71FE50F2
    CRC32 hash (skip zero)   : D7F87D85
    AccurateRip v1 signature : DA172193
    AccurateRip v2 signature : F95E53E9
        ->Track not present in AccurateRip database.
    Statistics
        Read error                           : 0
        Jitter error (maybe fixed)           : 0
        Retry sector count                   : 0
        Damaged sector count                 : 0

Track 13
    Filename : /Volumes/hammygreen/Imagine Dragons - Night Visions (Best Buy Exclusive Edition) [2012] [FLAC]/13 Imagine Dragons - The River (Bonus Track).flac
    Pre-gap length : 00:02:22

    Track gain               : -9.88 dB
    Peak                     : 0.966064
    CRC32 hash (test run)    : BB786113
    CRC32 hash               : BB786113
    CRC32 hash (skip zero)   : CE227163
    AccurateRip v1 signature : A2A15067
    AccurateRip v2 signature : 47F534D8
        ->Track not present in AccurateRip database.
    Statistics
        Read error                           : 0
        Jitter error (maybe fixed)           : 0
        Retry sector count                   : 0
        Damaged sector count                 : 0

No errors occurred

End of status report
Код:
Код:
-----------------------

DON'T MODIFY THIS FILE

-----------------------

PERFORMER: auCDtect Task Manager, ver. 1.6.0 RC1 build 1.6.0.1
Copyright (c) 2008-2010 y-soft. All rights reserved
http:/y-soft.org

ANALYZER: auCDtect: CD records authenticity detector, version 0.8.2
Copyright (c) 2004 Oleg Berngardt. All rights reserved.
Copyright (c) 2004 Alexander Djourik. All rights reserved.

FILE: 13 Imagine Dragons - The River (Bonus Track).flac
  Size: 27312275 Hash: 0410C85EE361635B6A4D6E7DDF12E1FB Accuracy: -m0
  Conclusion: CDDA 100%
  Signature: 1AA03D3F1EC54CAD0B1A1270E16FEEAB0471C800
FILE: 12 Imagine Dragons - Selene (Bonus Track).flac
  Size: 30453329 Hash: DE00D4D6CF043EFD22AE0BBE6B88F5E7 Accuracy: -m0
  Conclusion: CDDA 100%
  Signature: FC569F9F7E1D974D1C5AA8EFC6D25158E9264613
FILE: 11 Imagine Dragons - Nothing Left To Say/Rocks.flac
  Size: 61537505 Hash: 17BF92A4789FE2016D364B4DD3E8B7A8 Accuracy: -m0
  Conclusion: CDDA 100%
  Signature: 5CC0F612B392A0BFDE2E50D83C15FBF7AD6BD495
FILE: 10 Imagine Dragons - Underdog.flac
  Size: 27011613 Hash: A7C65E6304470EF884C13CD965AC771C Accuracy: -m0
  Conclusion: CDDA 100%
  Signature: F5421E18853B358202EBCAADFE19DF367597070F
FILE: 09 Imagine Dragons - Bleeding Out.flac
  Size: 25823598 Hash: 7657DA7A2445AED09A45EC31C8256046 Accuracy: -m0
  Conclusion: CDDA 100%
  Signature: 068B70A888813724A7E614C6C6EB14C2D67853F0
FILE: 08 Imagine Dragons - Every Night.flac
  Size: 27207136 Hash: 655F75EF566EB24FA331EFB2286B6DAA Accuracy: -m0
  Conclusion: CDDA 100%
  Signature: FF5B708D787E44B177BAD897602A466B040AE01E
FILE: 07 Imagine Dragons - Hear Me.flac
  Size: 29937985 Hash: BB1C575B244BC83630BAC2318A47E2C7 Accuracy: -m0
  Conclusion: CDDA 100%
  Signature: 38B1F965742C0E5B5BBCCB57F790AC80B6FDF80E
FILE: 06 Imagine Dragons - Amsterdam.flac
  Size: 31116387 Hash: 0C47FD9D2F578B4A2A965BF71AB65131 Accuracy: -m0
  Conclusion: CDDA 100%
  Signature: 121179E29A3324ADBAA0DCCBD5D18B04A5452374
FILE: 05 Imagine Dragons - On Top Of The World.flac
  Size: 22510063 Hash: 312F165C662F552D12BBCD652BD7DAB2 Accuracy: -m0
  Conclusion: CDDA 100%
  Signature: D5B33AADAD367E71839C1367FBEE9E6CA20F4C1B
FILE: 04 Imagine Dragons - Demons.flac
  Size: 20245629 Hash: BB653E1E9E38E72382755B6812FDFF2D Accuracy: -m0
  Conclusion: CDDA 99%
  Signature: E3FA85EF22F86CCAF26B08B97B24FB90663D02C4
FILE: 03 Imagine Dragons - It's Time.flac
  Size: 30548413 Hash: 132E040551F4A38216D68B894EB57E37 Accuracy: -m0
  Conclusion: CDDA 100%
  Signature: 8730697E3F5FE60ADB0EAF07EFEE734FD4C7F87F
FILE: 02 Imagine Dragons - Tiptoe.flac
  Size: 24383083 Hash: 121E68649622CD7C8755A23403C19234 Accuracy: -m0
  Conclusion: CDDA 100%
  Signature: B2FDA797B7AB1B8D0A21B1EFE4B5F00B425106FF
FILE: 01 Imagine Dragons - Radioactive.flac
  Size: 23277192 Hash: B3674747EE18848AFBE95F0732B5267C Accuracy: -m0
  Conclusion: CDDA 100%
  Signature: 584827E615B66A9B78007FDA75EA3280431919C4
Благодарность:Obid95
Правила, инструкции, FAQ!!!
Торрент  Добавлен [16 мар 2014, 00:38] Скачать торрент Магнет ссылка
Скачать торрент
[ Размер 16.05 КБ / Просмотров 79 ]

Статус  
 
Размер  363.71 МБ
Приватный: Нет (DHT включён)
.torrent скачан  2
 


     Отправить личное сообщение
   
Страница 1 из 1
Показать сообщения за:  Поле сортировки  
Начать новую тему Ответить на тему


Сейчас этот форум просматривают: нет зарегистрированных пользователей и гости: 0


Вы не можете начинать темы
Вы не можете отвечать на сообщения
Вы не можете редактировать свои сообщения
Вы не можете удалять свои сообщения
Вы не можете добавлять вложения

Перейти:  
cron
cron