Начать новую тему Ответить на тему
Статистика раздачи
Размер: 225.12 МБ | Добавлен: 16 мар 2014, 00:04 | Скачали: 0
Сидеров: 0  [0 байт/сек]    Личеров: 6  [0 байт/сек]
Пред. тема | След. тема 

Автор
Сообщение

СообщениеДобавлено: 16 мар 2014, 00:04 

Ответить с цитатой 

Iguana - Iguana (1972) Reissue, Remastered 2012

Жанр: Rock, Fusion, Prog Rock
Год: 1972
Страна: UK
Released: 2012/Sweden
Label: Flawed Gems
Catalog#: GEM 93
Аудио кодек: FLAC
Тип рипа: image+.cue
Битрейт аудио: lossless
Продолжительность: 00:35:56
Источник-релизер: erro
Scans: в раздаче
Треклист:
01. Iguana (3:35)
02. Southampton Blues (1:50)
03. Price Of Love (8:49)
04. Power Of Love (3:45)
05. I Don't Need No Buddy (3:16)
06. Ron's Tune (4:25)
07. Prostitute (3:33)
08. Grey Day Lady (3:21)
09. Celluloid Samba (3:24)
Код:
Код:
Exact Audio Copy V1.0 beta 3 from 29. August 2011

EAC extraction logfile from 9. May 2013, 12:55

Iguana / Iguana

Used drive  : HL-DT-STDVDRAM GT34N   Adapter: 0  ID: 2

Read mode               : Secure
Utilize accurate stream : Yes
Defeat audio cache      : Yes
Make use of C2 pointers : No

Read offset correction                      : 103
Overread into Lead-In and Lead-Out          : No
Fill up missing offset samples with silence : Yes
Delete leading and trailing silent blocks   : No
Null samples used in CRC calculations       : Yes
Used interface                              : Native Win32 interface for Win NT & 2000

Used output format              : User Defined Encoder
Selected bitrate                : 896 kBit/s
Quality                         : High
Add ID3 tag                     : Yes
Command line compressor         : C:\Program Files (x86)\Exact Audio Copy\FLAC\FLAC.EXE
Additional command line options : -6 -V -T "ARTIST=%artist%" -T "TITLE=%title%" -T "ALBUM=%albumtitle%" -T "DATE=%year%" -T "TRACKNUMBER=%tracknr%" -T "GENRE=%genre%" -T "COMMENT=%comment%" -T "BAND=%albuminterpret%" -T "ALBUMARTIST=%albuminterpret%" -T "COMPOSER=%composer%" %haslyrics%--tag-from-file=LYRICS="%lyricsfile%"%haslyrics% -T "DISCNUMBER=%cdnumber%" -T "TOTALDISCS=%totalcds%" -T "TOTALTRACKS=%numtracks%" %hascover%--picture="%coverfile%"%hascover% %source% -o %dest%

TOC of the extracted CD

     Track |   Start  |  Length  | Start sector | End sector
    ---------------------------------------------------------
        1  |  0:00.00 |  3:34.41 |         0    |    16090
        2  |  3:34.41 |  1:49.67 |     16091    |    24332
        3  |  5:24.33 |  8:48.41 |     24333    |    63973
        4  | 14:12.74 |  3:45.37 |     63974    |    80885
        5  | 17:58.36 |  3:16.29 |     80886    |    95614
        6  | 21:14.65 |  4:24.40 |     95615    |   115454
        7  | 25:39.30 |  3:32.41 |    115455    |   131395
        8  | 29:11.71 |  3:20.48 |    131396    |   146443
        9  | 32:32.44 |  3:23.61 |    146444    |   161729

Range status and errors

Selected range

     Filename F:\FLAC\FLAC 4\Iguana - Iguana\Iguana - Iguana.wav

     Peak level 100.0 %
     Extraction speed 1.9 X
     Range quality 100.0 %
     Test CRC 324B1B88
     Copy CRC 324B1B88
     Copy OK

No errors occurred

AccurateRip summary

Track  1  not present in database
Track  2  not present in database
Track  3  not present in database
Track  4  not present in database
Track  5  not present in database
Track  6  not present in database
Track  7  not present in database
Track  8  not present in database
Track  9  not present in database

None of the tracks are present in the AccurateRip database

End of status report

==== Log checksum FCDAF8B56A82187FBEF6871BC9A852638A9CE76AF818F191A941D93DEC812E4C ====
Код:
Код:
-----------------------

DON'T MODIFY THIS FILE

-----------------------

PERFORMER: auCDtect Task Manager, ver. 1.6.0 RC1 build 1.6.0.1
Copyright (c) 2008-2010 y-soft. All rights reserved
http:/y-soft.org

ANALYZER: auCDtect: CD records authenticity detector, version 0.8.2
Copyright (c) 2004 Oleg Berngardt. All rights reserved.
Copyright (c) 2004 Alexander Djourik. All rights reserved.

FILE: Iguana - Iguana.flac
  Size: 222480022 Hash: 26E9704EA6B03A5B0C6C7728195A1838 Accuracy: -m0
  Conclusion: CDDA 100%
  Signature: 2DE2055D4C3BFD248BCB3E176BA4E60EDEA83E78
Код:
Код:
REM GENRE "Progressive Rock"
REM DATE 1972
REM DISCID 6E086C09
REM COMMENT "ExactAudioCopy v1.0b3"
PERFORMER "Iguana"
TITLE "Iguana"
FILE "Iguana - Iguana.flac" WAVE
  TRACK 01 AUDIO
    TITLE "Iguana"
    PERFORMER "Iguana"
    FLAGS DCP
    INDEX 01 00:00:00
  TRACK 02 AUDIO
    TITLE "Southampton Blues"
    PERFORMER "Iguana"
    FLAGS DCP
    INDEX 00 03:32:41
    INDEX 01 03:34:41
  TRACK 03 AUDIO
    TITLE "Price Of Love"
    PERFORMER "Iguana"
    FLAGS DCP
    INDEX 00 05:22:33
    INDEX 01 05:24:33
  TRACK 04 AUDIO
    TITLE "Power Of Love"
    PERFORMER "Iguana"
    FLAGS DCP
    INDEX 00 14:10:74
    INDEX 01 14:12:74
  TRACK 05 AUDIO
    TITLE "I Don't Need No Buddy"
    PERFORMER "Iguana"
    FLAGS DCP
    INDEX 00 17:56:36
    INDEX 01 17:58:36
  TRACK 06 AUDIO
    TITLE "Ron's Tune"
    PERFORMER "Iguana"
    FLAGS DCP
    INDEX 00 21:12:65
    INDEX 01 21:14:65
  TRACK 07 AUDIO
    TITLE "Prostitute"
    PERFORMER "Iguana"
    FLAGS DCP
    INDEX 00 25:37:30
    INDEX 01 25:39:30
  TRACK 08 AUDIO
    TITLE "Grey Day Lady"
    PERFORMER "Iguana"
    FLAGS DCP
    INDEX 00 29:09:71
    INDEX 01 29:11:71
  TRACK 09 AUDIO
    TITLE "Celluloid Samba"
    PERFORMER "Iguana"
    FLAGS DCP
    INDEX 00 32:30:44
    INDEX 01 32:32:44

Единственный и прекрасный альбом английской группы из Саутгемтона (Southampton). После записи этого альбома группа целиком присоединилась к вокалисту Jess Roden и в течение нескольких лет была его аккомпанирующей командой. (Миф)

Credits
Alto Saxophone, Tambourine – Ron Taylor (3)
Bass Guitar, Drums [Finger] – John Cartwright (2)
Drums, Congas – Pete Hunt (2)
Guitar, Vocals – Bruce Roberts (2)
Producer – Tony Waddington
Trombone, Tambourine – Chris Gower
Notes
Original album released in 1972.
Правила, инструкции, FAQ!!!
Торрент  Добавлен [16 мар 2014, 00:04] Скачать торрент Магнет ссылка
Скачать торрент
[ Размер 18.85 КБ / Просмотров 33 ]

Статус  
 
Размер  225.12 МБ
Приватный: Нет (DHT включён)
.torrent скачан  0
 


     Отправить личное сообщение
   
Страница 1 из 1
Показать сообщения за:  Поле сортировки  
Начать новую тему Ответить на тему


Сейчас этот форум просматривают: нет зарегистрированных пользователей и гости: 0


Вы не можете начинать темы
Вы не можете отвечать на сообщения
Вы не можете редактировать свои сообщения
Вы не можете удалять свои сообщения
Вы не можете добавлять вложения

Перейти:  
cron
cron